アットウィキロゴ
Fox4-Raize-
Getty vs. DJ DiA

ADVANCED

Level: 8
BPM: 50-200
Notes: 725

1
口口口口 |(200)----|
口口口口 |----|
口口口口 |----|
口口口口 |----|
2
口口口口 |①--②|
口口①① |--③-|
口口②② |----|
口口③③ |----|
3
口口口口 |----|
口口口口 |----|
口口口口 |----|
口口口口 |----|
4
口口口口 |①--②|
①①口口 |--③-|
②②口口 |----|
③③口口 |----|
5
口①①口 |----|
口口口口 |----|
口口口口 |①---|
口口口口 |----|
6
口口口口 |①--②|
口口①① |--③-|
口口②② |----|
口口③③ |----|
7
口口口口 |----|
口口口口 |----|
口口口口 |----|
口口口口 |----|
8
口口口口 |①--②|
①①口口 |--③-|
②②口口 |----|
③③口口 |----|
9
口①①口 |----|
口口口口 |----|
口口口口 |①---|
口口口口 |----|
10
④④口口 |①-②-|
口口口① |③---|
⑤⑤②口 |④---|
口③口口 |⑤---|
11
口口①① |①---|
③口口口 |②---|
口④②② |③-④-|
口口⑤口 |⑤---|
12
口口口口 |①-②-|
口口口① |③---|
④口②⑤ |④---|
④③口⑤ |⑤---|
13
口②①口 |①---|
②③③① |②---|
口④④口 |③-④-|
口⑤⑤口 |⑤---|
14
①口口① |①---|
口口口口 |②---|
③口口③ |③---|
②④⑤② |④-⑤-|
15
口①①口 |①---|
口口口口 |②---|
③④⑤⑥ |③-④-|
②口口② |⑤-⑥-|
16
③口口① |①-②-|
口④②口 |③-④-|
口⑧⑥口 |⑤-⑥-|
⑦口口⑤ |⑦-⑧-|
17
口①①⑥ |(50)①②③④⑤⑥⑦-|
⑤⑦⑦④
③⑦⑦②
口口口口
18
①①①口 |(200)①---|
③口④口 |②---|
⑤口口口 |③-④-|
口②②② |⑤---|
19
口①①① |①---|
口④口③ |②---|
口⑥口⑤ |③-④-|
②②②口 |⑤-⑥-|
20
①①①口 |①---|
③口④口 |②---|
⑤口口口 |③-④-|
口②②② |⑤---|
21
口①口② |①---|
③④⑤⑥ |②---|
口②口① |③-④-|
口口口口 |⑤-⑥-|
22
①①①口 |①---|
③口④口 |②---|
⑤口口口 |③-④-|
口②②② |⑤---|
23
口①①① |①---|
口④口③ |②---|
口⑥口⑤ |③-④-|
②②②口 |⑤-⑥-|
24
①①①口 |①---|
③口④口 |②---|
⑤口⑥口 |③-④-|
口②②② |⑤-⑥-|
25
口①②③ |①---|
④②③口 |②---|
④③口口 |③---|
口口口口 |④---|
26
④④口口 |①-②-|
口口口① |③---|
⑤⑤②口 |④---|
口③口口 |⑤---|
27
口口①① |①---|
③口口口 |②---|
口④②② |③-④-|
口口⑤口 |⑤---|
28
口口口口 |①-②-|
口口口① |③---|
④口②⑤ |④---|
④③口⑤ |⑤---|
29
口②①口 |①---|
②③③① |②---|
口④④口 |③-④-|
口⑤⑤口 |⑤---|
30
①口口① |①---|
口口口口 |②-③-|
④口口⑤ |④-⑤-|
②⑥⑦③ |⑥-⑦-|
31
口①①口 |①---|
口口口口 |②-③-|
④⑤⑥⑦ |④-⑤-|
②口口③ |⑥-⑦-|
32
③口口① |①-②-|
口④②口 |③-④-|
口⑧⑥口 |⑤-⑥-|
⑦口口⑤ |⑦-⑧-|
33
口①①口 |①---|
③口口④ |②---|
口⑤⑤口 |③-④-|
口②②口 |⑤---|
34
口①①口 |①---|
口①①口 |----|
口口口口
口口口口

口口口口
口口④③
②口口口 |②---|
②口口口 |③-④-|
35
①口口④ |①---|
①口口口 |②-③-|
口口③② |--④-|
⑤口口口 |⑤---|
36
口①①口 |①---|
口①①口 |----|
口口口口
口口口口

口口口口
③④口口
口口口② |②---|
口口口② |③-④-|
37
④口口① |①---|
口口口① |②-③-|
②③口口 |--④-|
口口口⑤ |⑤---|
38
③①①③ |①---|
口②②口 |②---|
口口口口 |③---|
口④⑤口 |④-⑤-|
39
口口口口 |①---|
①口口① |②-③-|
②③④⑤ |④-⑤-|
口口口口 |----|
40
③①③① |①---|
口③①口 |--②-|
②口②口 |----|
口②口口 |③---|
41
口口口② |--①-|
③④⑤② |----|
口①口① |②-③-|
口口①口 |④-⑤-|
42
口①①口 |①---|
③④⑤口 |②---|
口②②口 |③-④-|
口口口口 |⑤---|
43
②口口① |①---|
口口口口 |--②-|
②口口①
口口口口

口口口口
口口口③
口口口④ |----|
口口口口 |③-④-|
44
口口口① |①-②-|
⑤口②口 |③-④-|
⑤③口口 |----|
④口口口 |⑤---|
45
口口④⑥ |①-②-|
⑤③口口 |③-④-|
口口②口 |--⑤-|
口①口口 |⑥---|
46
④④⑤口 |①-②-|
口⑥③③ |③-④-|
②②⑤口 |⑤-⑥-|
口⑥①① |----|
47
④④口⑤ |①-②-|
⑥口③③ |③-④-|
②②口⑤ |⑤-⑥-|
⑥口①① |----|
48
口④⑤口 |①-②-|
口⑥③口 |③-④-|
口②⑦口 |⑤-⑥-|
口⑧①口 |⑦-⑧-|
49
口口口口 |----|
口口口口 |----|
口口口口 |----|
口口口口 |----|
50
口口口③ |(100)①-②-|
口口口口 |③---|
口口口②
口①①口

⑥口口口
口口口口
⑤口口口 |④-⑤-|
口④④口 |⑥---|
51
口口口③ |①-②-|
口口口口 |③---|
口口口②
口①①口

⑥口口口
口口口口
⑤口口口 |④-⑤-|
口④④口 |⑥---|
52
口口口③ |①-②-|
口口口口 |③---|
口口口②
口①①口

⑥口口口
口口口口
⑤口口口 |④-⑤-|
口④④口 |⑥---|
53
口口口③ |①-②-|
口口口口 |③---|
口口口②
口①①口

⑥口口口
口口口口
⑤口口口 |④-⑤-|
口④④口 |⑥---|
54
④④口口 |①②③-|
口口口① |④-⑤-|
⑤⑤②口
口③口口

口口⑥⑥
⑧口口口
口⑨⑦⑦ |⑥-⑦-|
口口⑩口 |⑧⑨⑩-|
55
口口口口 |①②③-|
口口口① |④-⑤-|
④口②⑤
④③口⑤

口⑦⑥口
⑦⑧⑧⑥
口⑨⑨口 |⑥-⑦-|
口⑩⑩口 |⑧⑨⑩-|
56
①口口① |①-②-|
口口口口 |③-④⑤|
③口口③
②④⑤②

口⑥⑥口
口口口口
⑧⑨⑩⑪ |⑥-⑦-|
⑦口口⑦ |⑧⑨⑩⑪|
57
③口口① |①②③④|
口④②口 |⑤⑥⑦⑧|
口⑧⑥口
⑦口口⑤

口⑨⑨口
口⑬⑬口
⑩口口⑩ |⑨-⑩-|
口⑪⑫口 |⑪⑫⑬-|
58
①口③① |(200)①---|
口④口口 |②---|
②口⑤② |③-④-|
口⑥口口 |⑤-⑥-|
59
口③口口 |①---|
②口④② |②---|
口⑤口口 |③-④-|
①口⑥① |⑤-⑥-|
60
①口③① |①---|
口④口口 |②---|
②口⑤② |③-④-|
口⑥口口 |⑤-⑥-|
61
口口口口 |①---|
②口③② |②---|
口③口口 |③---|
①口口① |----|
62
①口③① |①---|
口④口口 |②---|
②口⑤② |③-④-|
口⑥口口 |⑤-⑥-|
63
口③口口 |①---|
②口④② |②---|
口⑤口口 |③-④-|
①口⑥① |⑤-⑥-|
64
①口③① |①---|
口④口口 |②---|
②口⑤② |③-④-|
口⑥口口 |⑤-⑥-|
65
⑦⑤⑤⑦ |①-②-|
②口口① |③-④-|
④口口③ |⑤---|
⑥口口⑥ |⑥-⑦-|
66
口③④口 |①---|
②口②口 |②---|
口①口① |③-④-|
口⑤⑥口 |⑤-⑥-|
67
口④③口 |①---|
口②口② |②---|
①口①口 |③-④-|
口⑥⑤口 |⑤-⑥-|
68
口③④口 |①---|
②口②口 |②---|
口①口① |③-④-|
口⑤⑥口 |⑤-⑥-|
69
④口口③ |①---|
口②口② |②---|
①口①口 |③-④-|
⑥口口⑤ |⑤-⑥-|
70
口③④口 |①---|
②口②口 |②---|
口①口① |③-④-|
口⑤⑥口 |⑤-⑥-|
71
口④③口 |①---|
口②口② |②---|
①口①口 |③-④-|
口⑥⑤口 |⑤-⑥-|
72
口③④口 |①---|
②口②口 |②---|
口①口① |③-④-|
口⑤⑥口 |⑤-⑥-|
73
口口口口 |①-②-|
③⑤⑤① |③-④-|
④⑥⑥② |⑤---|
口口口口 |⑥---|
74
④口③口 |①-②-|
口口口口 |③-④-|
口口口口
①口②口

口口口⑤
口口⑥口
口⑦口口 |⑤-⑥-|
⑧口口口 |⑦-⑧-|
75
口③口④ |①-②-|
口口口口 |③-④-|
口口口口
口②口①

⑤口口口
口⑥口口
口口⑦口 |⑤-⑥-|
口口口⑧ |⑦-⑧-|
76
④口③口 |①-②-|
口口口口 |③-④-|
口口口口
①口②口

口口口⑤
口口⑥口
口⑦口口 |⑤-⑥-|
⑧口口口 |⑦-⑧-|
77
口③口④ |①-②-|
口口口口 |③-④-|
口口口口
口②口①

⑤口口口
口⑥口口
口口⑦口 |⑤-⑥-|
口口口⑧ |⑦-⑧-|
78
④口③口 |①-②-|
口口口口 |③-④-|
口口口口
①口②口

口口口⑤
口口⑥口
口⑦口口 |⑤-⑥-|
⑧口口口 |⑦-⑧-|
79
口③口④ |①-②-|
口口口口 |③-④-|
口口口口
口②口①

⑤口口口
口⑥口口
口口⑦口 |⑤-⑥-|
口口口⑧ |⑦-⑧-|
80
④口③口 |①-②-|
口口口口 |③-④-|
口口口口
①口②口

口口口⑤
口口⑥口
口⑦口口 |⑤-⑥-|
⑧口口口 |⑦-⑧-|
81
口口口口 |--①-|
①⑤⑤② |②-③-|
③口口④ |④-⑤-|
口⑥⑥口 |⑥---|
82
①①口② |①-②-|
⑤⑤口④ |③-④-|
③③口⑥ |⑤-⑥-|
⑦⑦口⑧ |⑦-⑧-|
83
①①口② |①-②-|
⑤⑤口④ |③-④-|
③③口⑥ |⑤-⑥-|
⑦⑦口⑧ |⑦-⑧-|
84
①①口② |①-②-|
⑤⑤口④ |③-④-|
③③口⑥ |⑤-⑥-|
⑦⑦口⑧ |⑦-⑧-|
85
①①口② |①-②-|
口⑤⑤④ |③-④-|
③③口口 |--⑤-|
口⑥⑥口 |⑥---|
86
②口①① |①-②-|
④口⑤⑤ |③-④-|
⑥口③③ |⑤-⑥-|
⑧口⑦⑦ |⑦-⑧-|
87
②口①① |①-②-|
④口⑤⑤ |③-④-|
⑥口③③ |⑤-⑥-|
⑧口⑦⑦ |⑦-⑧-|
88
②口①① |①-②-|
④口⑤⑤ |③-④-|
⑥口③③ |⑤-⑥-|
⑧口⑦⑦ |⑦-⑧-|
89
口口①① |①---|
②②口口 |②---|
口口口口
口口口口

口口⑤口
口口口⑤
④口③③ |③---|
口④口口 |④-⑤-|

accuracy: 100%
最終更新:2022年09月10日 03:34