アットウィキロゴ
Fox4-Raize-
Getty vs. DJ DiA

EXTREME

Level: 9.9
BPM: 50-200
Notes: 897

1
口口口口 |(200)----|
口口口口 |----|
口口口口 |----|
口口口口 |----|
2
口口口口 |①--②|
口③口③ |--③-|
口②口② |----|
口①口① |----|
3
口口口口 |----|
口口口口 |----|
口口口口 |----|
口口口口 |----|
4
口口口口 |①--②|
③口口③ |--③-|
②口口② |----|
①口口① |----|
5
口口口口 |----|
①①①① |----|
口口口口 |①---|
口口口口 |----|
6
口口口口 |①--②|
③口③口 |--③-|
②口②口 |----|
①口①口 |----|
7
口口口口 |----|
口口口口 |----|
口口口口 |----|
口口口口 |----|
8
口口口口 |①--②|
③口口③ |--③-|
②口口② |----|
①口口① |----|
9
口口口口 |----|
①①①① |----|
口口口口 |①---|
口口口口 |----|
10
③⑦⑤① |①-②-|
口口口口 |③-④-|
口口口口 |⑤-⑥-|
⑧④②⑥ |⑦-⑧-|
11
③口口口 |①---|
口⑥⑤④ |②---|
③①①口 |③-④⑤|
口②②口 |⑥---|
12
⑤⑧⑥口 |①-②③|
①口口口 |④-⑤-|
口④③② |⑥-⑦-|
①⑨⑦口 |⑧-⑨-|
13
⑤⑪⑪① |①②③④----|
⑥⑩⑩② |⑤⑥⑦⑧----|
⑦⑨⑨③ |⑨-⑩-|
⑧口口④ |⑪---|
14
④⑤口口 |①---|
口口口③ |②---|
②口口口 |③---|
口口口① |④-⑤-|
15
口口口口 |①---|
③④⑤⑥ |②---|
口口口② |③-④-|
①口口口 |⑤-⑥-|
16
①⑤⑥② |①②③④|
⑮⑪⑫⑯ |⑤⑥⑦⑧|
⑨③④⑩ |⑨⑩⑪⑫|
⑦⑬⑭⑧ |⑬⑭⑮⑯|
17
①②③④ |(50)①②③④⑤⑥⑦-|
口⑤⑥口
口⑦⑦口
⑤口口⑥
18
③口口③ |(200)①---|
①④口① |②---|
⑤口⑥口 |③-④-|
口②②⑤ |⑤-⑥-|
19
口②①③ |①---|
④⑤②⑥ |②---|
口①口① |③--④|
③③②⑤ |⑤-⑥-|
20
③②①③ |①---|
口④②口 |②---|
⑤①⑥① |③-④-|
口口②⑤ |⑤-⑥-|
21
④口口③ |①---|
①⑥⑤① |②---|
⑩⑨⑧⑦ |③④⑤⑥|
口②②口 |⑦⑧⑨⑩|
22
③口口③ |①---|
①口④① |②---|
口⑥口⑤ |③-④-|
⑤②②口 |⑤-⑥-|
23
③①②口 |①---|
⑥②⑤④ |②---|
①口①口 |③--④|
⑤②③③ |⑤-⑥-|
24
③①②③ |①---|
口②④口 |②---|
①⑥①⑤ |③-④-|
⑤②口口 |⑤-⑥-|
25
口②口口 |①---|
②③口① |②---|
④口③④ |③---|
口口口③ |④---|
26
③⑦⑤① |①-②-|
口口口口 |③-④-|
口口口口 |⑤-⑥-|
⑧④②⑥ |⑦-⑧-|
27
③口口口 |①---|
口⑥⑤④ |②---|
③①①口 |③-④⑤|
口②②口 |⑥---|
28
⑤⑧⑥口 |①-②③|
①口口口 |④-⑤-|
口④③② |⑥-⑦-|
①⑨⑦口 |⑧-⑨-|
29
⑤口口① |①②③④----|
⑥⑩⑬② |⑤⑥⑦⑧----|
⑦⑪口③ |⑨-⑩⑪|
⑧⑫⑨④ |⑫-⑬-|
30
口口①① |①---|
⑥口⑦口 |②-③-|
④口⑤口 |④-⑤-|
②口③口 |⑥-⑦-|
31
①①口口 |①---|
口⑦口⑥ |②-③-|
口⑤口④ |④-⑤-|
口③口② |⑥-⑦-|
32
④③②① |①②③④|
⑪口口⑫ |⑤⑥⑦⑧|
⑨口口⑩ |⑨-⑩-|
⑤⑥⑦⑧ |⑪-⑫-|
33
⑥②②⑤ |①---|
口⑦⑦口 |②---|
④①①③ |③④⑤⑥|
口口口口 |⑦---|
34
口口口口 |①---|
①口口① |----|
口口口口
①口口①

③口口②
口④口⑥
口口⑤口 |②-③④|
口口口口 |⑤-⑥-|
35
⑦口①⑥ |①-②③|
②⑧⑧口 |④-⑤-|
口③口⑤ |⑥-⑦-|
口口④口 |⑧---|
36
口口口口 |①---|
①口口① |----|
口口口口
①口口①

口口口②
口口口⑥
③④⑤口 |②-③④|
口口口口 |⑤-⑥-|
37
①⑨⑨⑤ |①-②③|
⑥⑦⑧口 |④-⑤-|
口口口口 |⑥⑦⑧-|
口④③② |⑨---|
38
③口口④ |①---|
⑦口⑤口 |②---|
①⑥口② |③-④⑤|
①口口② |⑥-⑦-|
39
⑥①口⑦ |①-②③|
口⑧⑧② |④-⑤-|
⑤口③口 |⑥-⑦-|
口④口口 |⑧---|
40
口口口口 |①-②-|
③口⑧⑥ |③-④-|
⑦⑤口② |⑤-⑥-|
①口口④ |⑦-⑧-|
41
①口口④ |①-②-|
③口口口 |③-④-|
口口口②
口口口口

⑧⑦⑥口
口口口⑤
⑧⑦⑥口 |⑤-⑥-|
口口口口 |⑦-⑧-|
42
口口③口 |①---|
④①①口 |②---|
口⑤③口 |③-④-|
②口⑥② |⑤-⑥-|
43
口口④① |①-②-|
口②口口 |③-④-|
③口④① |----|
⑤口口⑥ |⑤-⑥-|
44
口⑥⑥口 |①-②-|
①②③④ |③-④-|
⑤口口⑤ |----|
口口口口 |⑤-⑥-|
45
口口口口 |①-②-|
⑤口口⑤ |③-④-|
⑥口口⑥ |--⑤-|
①②③④ |⑥---|
46
③①③① |①-②-|
口⑤⑤口 |③-④-|
口⑥⑥口 |⑤-⑥-|
②④②④ |----|
47
③①③① |①-②-|
口⑥⑥口 |③-④-|
口⑤⑤口 |⑤-⑥-|
②④②④ |----|
48
⑫④③⑪ |①②③④|
⑧⑯⑮⑦ |⑤⑥⑦⑧|
②⑭⑬① |⑨⑩⑪⑫|
⑥⑩⑨⑤ |⑬⑭⑮⑯|
49
口口口口 |----|
口口口口 |----|
口口口口 |----|
口口口口 |----|
50
②口口⑤ |(100)①-②-|
④⑥③① |③---|
口③⑥口 |④-⑤-|
④①④① |⑥---|
51
②口口⑤ |①-②-|
④⑥③① |③---|
③①④⑥ |④-⑤-|
④口口① |⑥---|
52
②口口⑤ |①-②-|
④⑥③① |③---|
口③⑥口 |④-⑤-|
④①④① |⑥---|
53
口②⑤口 |①-②-|
④⑥③① |③---|
③①④⑥ |④-⑤-|
④口口① |⑥---|
54
③⑦⑤① |①②③④|
口口口口 |⑤⑥⑦⑧|
口口口口
⑧④②⑥

⑪口口口
口⑭⑬⑫
⑪⑨⑨口 |⑨-⑩-|
口⑩⑩口 |⑪-⑫⑬⑭---|
55
⑤⑧⑥口 |①-②③④-⑤-|
①口口口 |⑥⑦⑧⑨|
口④③②
①⑨⑦口

⑪口口⑩
⑩口口⑪
⑪口口⑩ |⑩-⑪-|
口口口口

口口口口
口⑬口口
口⑭口⑯
口⑮⑫口 |⑫-⑬⑭⑮-⑯-|
56
口口①① |①-②③|
⑥口⑧⑦ |④-⑤-⑥-⑦⑧|
④口⑤口
②口③口

⑨⑨口口
⑯⑰口口
⑬⑭⑮⑫ |⑨-⑩⑪|
⑪口口⑩ |⑫-⑬⑭⑮-⑯⑰|
57
④③②① |①②③④⑤⑥⑦⑧|
⑪口口⑫ |⑨⑩⑪⑫|
⑨口口⑩
⑤⑥⑦⑧

⑱⑭⑭⑰
口⑲⑲口
⑯⑬⑬⑮ |⑬-⑭-|
口口口口 |⑮⑯⑰⑱⑲---|
58
口⑨⑧⑦ |(200)①-②-|
⑥口口③ |③④⑤⑥|
口⑤④口 |⑦⑧⑨-|
②⑩⑪① |⑩-⑪-|
59
⑦⑧⑨口 |①-②-|
口④⑤口 |③④⑤⑥|
③口口⑥ |⑦⑧⑨-|
①⑪⑩② |⑩-⑪-|
60
口⑨⑧⑦ |①-②-|
⑥口口③ |③④⑤⑥|
口⑤④口 |⑦⑧⑨-|
②⑩⑪① |⑩-⑪-|
61
⑦口口⑦ |①-②-|
口口口口 |③④⑤⑥|
③④⑤⑥ |--⑦-|
①⑧⑧② |⑧---|
62
口⑨⑧⑦ |①-②-|
⑥口口③ |③④⑤⑥|
口⑤④口 |⑦⑧⑨-|
②⑩⑪① |⑩-⑪-|
63
⑦⑧⑨口 |①-②-|
口④⑤口 |③④⑤⑥|
③口口⑥ |⑦⑧⑨-|
①⑪⑩② |⑩-⑪-|
64
口⑨⑧⑦ |①-②-|
⑥口口③ |③④⑤⑥|
口⑤④口 |⑦⑧⑨-|
②⑩⑪① |⑩-⑪-|
65
口⑦⑥口 |①-②-|
口①②口 |③-④-|
口⑤⑤口 |⑤---|
③口口④ |⑥-⑦-|
66
③⑪⑩口 |①-②-|
④口②口 |③④⑤⑥|
⑤⑨⑧⑦ |⑦⑧⑨-|
⑥口①口 |⑩-⑪-|
67
口⑩⑪③ |①-②-|
口②口④ |③④⑤⑥|
⑦⑧⑨⑤ |⑦⑧⑨-|
口①口⑥ |⑩-⑪-|
68
③⑪⑩口 |①-②-|
④口②口 |③④⑤⑥|
⑤⑨⑧⑦ |⑦⑧⑨-|
⑥口①口 |⑩-⑪-|
69
口⑨⑩③ |①-②-|
口②口④ |③④⑤⑥|
口⑦⑧⑤ |⑦-⑧-|
口①口⑥ |⑨-⑩-|
70
③⑪⑩口 |①-②-|
④口②口 |③④⑤⑥|
⑤⑨⑧⑦ |⑦⑧⑨-|
⑥口①口 |⑩-⑪-|
71
口⑩⑪③ |①-②-|
口②口④ |③④⑤⑥|
⑦⑧⑨⑤ |⑦⑧⑨-|
口①口⑥ |⑩-⑪-|
72
③⑪⑩口 |①-②-|
④口②口 |③④⑤⑥|
⑤⑨⑧⑦ |⑦⑧⑨-|
⑥口①口 |⑩-⑪-|
73
⑦口口⑦ |①-②-|
⑥②①⑥ |③-④-|
口⑤⑤口 |⑤---|
④口口③ |⑥-⑦-|
74
⑧④④口 |①-②-|
⑧口口口 |③-④-|
②口⑦① |⑤-⑥-|
⑥口⑤③ |⑦-⑧-|
75
⑧口④④ |①-②-|
⑧口口口 |③-④-|
②口⑦① |⑤-⑥-|
⑥口⑤③ |⑦-⑧-|
76
⑧④④口 |①-②-|
⑧口口口 |③-④-|
②口⑦① |⑤-⑥-|
⑥口⑤③ |⑦-⑧-|
77
口口④④ |①-②-|
口⑥口⑧ |③-④-|
②口⑦① |⑤-⑥-|
口口⑤③ |⑦-⑧-|
78
口④④⑧ |①-②-|
口口口⑧ |③-④-|
①⑦口② |⑤-⑥-|
③⑤口⑥ |⑦-⑧-|
79
④④口⑧ |①-②-|
口口口⑧ |③-④-|
①⑦口② |⑤-⑥-|
③⑤口⑥ |⑦-⑧-|
80
口④④⑧ |①-②-|
口口口⑧ |③-④-|
①⑦口② |⑤-⑥-|
③⑤口⑥ |⑦-⑧-|
81
口⑦口⑪ |--①②|
①⑧②⑪ |③④⑤⑥|
③⑨④口 |⑦⑧⑨⑩|
⑤⑩⑥口 |⑪---|
82
②⑥④⑧ |①-②-|
②⑥④⑧ |③-④-|
口口⑦① |⑤-⑥-|
口口⑤③ |⑦-⑧-|
83
②⑥④⑧ |①-②-|
②⑥④⑧ |③-④-|
口口⑦① |⑤-⑥-|
口口⑤③ |⑦-⑧-|
84
②⑥④⑧ |①-②-|
②⑥④⑧ |③-④-|
口口⑦① |⑤-⑥-|
口口⑤③ |⑦-⑧-|
85
②口④口 |①-②-|
②口④口 |③-④-|
口口口①
口口口③

口口口口
口口口口
口⑤⑥⑦ |--⑤-|
口口口口 |⑥-⑦-|
86
⑧④⑥② |①-②-|
⑧④⑥② |③-④-|
①⑦口口 |⑤-⑥-|
③⑤口口 |⑦-⑧-|
87
⑧④⑥② |①-②-|
⑧④⑥② |③-④-|
①⑦口口 |⑤-⑥-|
③⑤口口 |⑦-⑧-|
88
⑧④⑥② |①-②-|
⑧④⑥② |③-④-|
①⑦口口 |⑤-⑥-|
③⑤口口 |⑦-⑧-|
89
口⑦⑪⑪ |①-②③|
口④⑨⑧ |④-⑤⑥|
①口⑥⑤ |⑦-⑧⑨|
⑩⑩③② |⑩-⑪-|

accuracy: 100%
最終更新:2022年09月10日 04:26