アットウィキロゴ
Prayer
ぺのれり

EXTREME

Level: 10.8
BPM: 144
Notes(hold): 803(128)

1
口④⑤V |①②③-|
②③口口 |④⑤-⑥|
口①口口 |⑦-⑧⑨|
⑥⑦口① |-⑩⑪-|

⑩⑪口口
口口口口
口⑧⑨口
口口口口
2
⑥⑦⑧口 |①②③-|
②③⑨口 |④⑤-⑥|
①口口口 |⑦-⑧⑨|
口④⑤口 |-⑩⑪-|

口口口口
口口口口
⑩口口口
口⑪口口
3
口④⑤口 |①②③-|
②③口口 |④⑤-⑥|
口①口口 |⑦-⑧⑨|
⑥⑦口口 |-⑩⑪-|

⑩⑪口口
口口口口
口⑧⑨口
口口口口
4
⑧口口V |①②③-|
②③V① |④⑤-⑥|
①⑥⑦口 |⑦-⑧-|
口④⑤① |⑨---|

口口口口
口口口口
口口⑨口
⑨口口口
5
口口口口 |①---|
口口口① |----|
口口口口 |②---|
口口口口 |--③④|

口口VV
口口①口
口口口口
口口口①

口V口口
口②②口
口口口口
口口口口

口口口口
口③口口
口④③口
口口口③
6
VV口② |①---|
①口口口 |--②-|
口口口口 |③--④|
口①口口 |--⑤-|

口口口口
③④口④
>⑤⑤<
③③③口
7
①③②口 |--①-|
口⑤④口 |②③-④|
口口口口 |⑤---|
口口口口 |⑥---|

口口口口
口>口⑥
口⑥⑥口
口口口口
8
①口<口 |①---|
口口口① |②③④⑤⑥⑦|
口口口口 |⑧--⑨|
口口口口 |--⑩-|

⑤③②⑨
口⑤④⑨
口⑦⑥口
口口⑧⑧

口口⑩口
⑩<口口
口口口⑩
口⑩<口
9
口口口口 |----|
①口口口 |----|
口口>① |--①-|
口①口口 |②-③-|

口口口口
口②<口
口口口②
口口口口

口口>③
口③口口
口口口口
口口口口
10
口口口① |①--②|
口口口口 |--③-|
口①<口 |----|
①<口口 |④---|

口>②口
口口>②
口②口口
②口口口

V口③口
③口③③
口口∧口
口口口口

口口口口
④口④口
口V口V
口④口④
11
口V④⑦ |①-②-③-|
口口⑥③ |④-⑤-⑥-|
口①②⑤ |⑦-⑧-|
口①口① |⑨-⑩-|

口口口口
口口口口
口⑧口口
口>⑧口

⑨<口口
口口口口
口口口口
口口⑨口

⑩口口口
口口>⑩
口口口口
口口口口
12
口口口口 |①--②|
口口口① |--③-|
口口口口 |----|
①<口口 |④---|

口口口口
口口口口
口口口口
②③<②

口口口口
④口口口
口口口口
口④口口
13
③⑦口⑧ |①②③④|
口⑪④⑫ |⑤⑥⑦⑧|
⑤⑨口⑥ |⑨⑩⑪⑫|
①口⑩② |⑬⑭⑮⑯|

⑮口⑯口
口口口口
口口⑭口
⑬口口口
14
⑩⑤口⑧ |①②③④|
①⑨④口 |⑤⑥⑦⑧|
⑦⑩口⑥ |⑨--⑩|
⑨③口② |--⑪-|

口口VV
口口口口
口口口口
口口⑪⑪
15
⑦⑪⑧④ |---①②③|
①②⑭⑩ |④⑤⑥⑦|
③⑨⑫⑥ |⑧⑨⑩⑪|
⑤⑬①① |⑫⑬⑭⑮|

口口口口
⑮口口口
口口口口
口口口口
16
④口⑦① |①②③④|
口⑧⑨口 |⑤⑥⑦⑧|
⑥口口⑤ |⑨--⑩|
②口③⑨ |--⑪-|

VV口⑩
口口口口
口口⑩口
⑪⑪口口
17
⑨⑫口⑪ |①②③④|
⑩⑬③② |⑤⑥⑦⑧|
⑤⑦⑥① |⑨⑩⑪⑫⑬⑭|
②②⑧④ |⑮⑯⑰⑱⑲⑳|
1
口口⑮口
口口⑯⑰
⑱口口⑭
⑲口口⑳
18
④⑦⑩⑥ |①②③④⑤⑥|
⑤⑧⑪⑫ |⑦⑧⑨⑩⑪⑫|
⑬①③⑭ |⑬--⑭|
口②⑨口 |--⑮-|

⑮⑮口口
口口口口
口口口口
∧∧口口
19
①①口口 |----|
口口②口 |---①②③|
口③口口 |④---|
④口口< |----|
20
口口②③ |①----②|
⑦⑥⑤④ |③---|
口口口口 |④-⑤-|
①口口① |⑥-⑦-|
21
口②口口 |①-②-|
口④⑤口 |③--④|
③口①口 |⑤-⑥⑦|
口①口③ |⑧⑨⑩⑪|

口口口口
口口口口
口⑨⑩⑪
⑥⑦⑧口
22
①①⑦口 |①②③④|
⑤②⑧③ |⑤⑥⑦⑧|
⑨⑩口口 |⑨⑩⑪⑫|
⑥口口④ |⑬⑭⑮⑯|

⑪⑫口口
口口口口
口口⑭⑬
口口⑯⑮
23
>口口① |①②③④|
②③⑦口 |⑤⑥⑦⑧|
④⑥⑧口 |⑨⑩⑪⑫|
口⑤口口 |⑬⑭⑮⑯|

⑨⑩⑪⑬
口口口口
口口口⑫
⑬口口<

口口口口
口口口口
口⑯口口
口口⑭⑮
24
口口口口 |①②③④|
>口口① |⑤⑥⑦⑧|
口口③口 |⑨⑩⑪⑫|
①②口口 |⑬---|

口⑥口口
口④口⑤
⑤<口口
口口口口

口口口口
⑧口⑦口
⑦口>⑦
口口口口

⑨口<口
口口口口
口⑩口⑨
口口⑪⑫

⑬口口⑬
口口口口
口口口口
口口口口
25
口VV口 |①---|
口①①口 |②-③-|
口口口口 |④-⑤-|
口口口口 |⑥-⑦-|

口⑤⑦口
②②②②
⑥口⑥④
④③④⑥
26
口口口口 |①---|
①V①口 |②---|
口口口口 |③---|
口①口口 |④---|

口口口口
口③V③
口②口②
口②③口

口口口口
口口口口
④口④口
口口④口
27
>口口① |①---|
②口口口 |②---|
口④口口 |③---|
口口口③ |④---|
28
口②口③ |①---|
口口①口 |②---|
口口口口 |③-④-|
③口④④ |--⑤-|

⑤⑤口口
口口口口
口口口口
口口口口
29
口④口④ |①---|
口②口② |②---|
①口口< |③---|
口③口③ |④---|
30
口口口口 |①---|
①口<② |②-③-|
①口口口 |④---|
口口③口 |⑤---|

④口<口
④口口口
口口⑤口
口口口口
31
①⑥口① |①---|
⑦②口口 |--②③|
口口③口 |④-⑤-|
⑤口口④ |⑥-⑦-|
32
口口⑥口 |①---|
口口②口 |--②③|
⑦③口口 |④-⑤-|
④口①⑤ |⑥-⑦-|
33
口口口口 |①--②|
口①①口 |③-④-|
口②口② |⑤--⑥|
口口口口 |⑦-⑧-|

③③口口
口V口V
口口口口
口③口③

口口口口
⑤口口⑤
⑥口⑥口
口④口④

口口⑦⑦
V口V口
口口口口
⑦口⑦口

口口口口
口口口口
口口口口
⑧口⑧口
34
①口<口 |①---|
口口口口 |②-③-|
口口口口 |④---|
口口口口 |⑤---|

②口口口
口口>②
口口口口
口口口口

口口口口
③<口③
口口口口
口口口口

口口口口
④口口口
口口口口
口口>④

口口口口
口口口口
口口口口
⑤口口⑤
35
>口口① |①-②③|
③口口口 |-④⑤-|
④①①口 |⑥⑦-⑧|
口②口口 |⑨---|

口⑤口⑨
口⑦口口
口口口口
⑧⑨⑥口
36
①口口< |①-②③|
口口口③ |-④⑤-|
口①①④ |⑥⑦-⑧|
口口②口 |⑨-⑩-|

⑨口⑤口
口⑩⑦口
口口口口
口⑥⑨⑧
37
>口口① |①-②③|
③口口口 |-④⑤-|
④①①口 |⑥⑦-⑧|
口②口口 |⑨---|

口⑤口⑨
口⑦口口
口口口口
⑧⑨⑥口
38
口口口口 |①---|
口口口V |②---|
口口口口 |③---|
口口口① |④---|

口口口口
口口口口
②口<口
口口口②

口口口口
口口口口
③>口③
口口口口

口口口口
④口<口
口口口④
口口口口
39
>口口① |①②③④|
①口口口 |⑤⑥⑦⑧|
③口口口 |⑨⑩⑪⑫|
②口口口 |⑬-⑭⑮|

口口④⑬
口⑬⑦⑩
口⑨⑥⑫
口⑧⑤⑪

口口⑭口
⑮口口口
口口口口
口口口口
40
①口口< |①②③④|
口口口口 |⑤⑥⑦⑧|
口口③口 |⑨⑩⑪⑫|
口口②口 |⑬-⑭⑮|

⑬④口口
⑩⑦⑬口
⑥⑫口⑨
⑤⑪口⑧

口⑭口口
口口口⑮
口口口口
口口口口
41
>口口① |①②③④|
口口口口 |⑤⑥⑦⑧|
③口口口 |⑨⑩⑪⑫|
②口口口 |⑬---|

口口④⑬
口⑬⑦⑩
口⑨⑥⑫
口⑧⑤⑪
42
口口口口 |①---|
①口<口 |--②③|
口口口口 |④--⑤|
口口口口 |⑥---|

口口口口
②V口②
口口③口
口④口口

口口口⑤
口口⑥口
口口口口
口⑤口口
43
口口口口 |①---|
口口口口 |②---|
口口口口 |③---|
①口口< |④---|

口口口口
口口口口
>口口②
②口口口

口口口口
③口口<
口口口③
口口口口

>口口④
④口口口
口口口口
口口口口
44
⑤①②① |①②③④|
口⑨⑩⑥ |⑤⑥⑦⑧|
⑦⑪⑫口 |⑨⑩⑪⑫|
口③④⑧ |⑬⑭⑮⑯|

口⑬口⑭
⑮口口口
口口口⑯
口口口口
45
V口V口 |①--②|
口口口口 |③-④-|
口口口口 |⑤--⑥|
①口①口 |--⑦-|

口口口口
口口口口
口口口口
②口②口

③口口口
口口④口
口④口口
口口口③

口口口口
口V口口
⑤口<口
口⑤口口

口口⑥口
口口口⑥
⑥口口口
口⑥口口

⑦口口口
口口口口
口口口⑦
>口口⑦
46
口口口① |----|
口②口口 |①-②③|
口口③口 |④--⑤|
口口口① |--⑥-|

口口口口
口口V口
口>口④
口口④口

口⑤口口
⑤口口口
口口口⑤
口口⑤口

口口口⑥
口口口口
⑥口口口
⑥口口<
47
①口口口 |----|
口V②口 |①-②-|
③口<口 |③--④|
①③口口 |--⑤-|

口口④口
口口口④
④口口口
口④口口

⑤口口口
口口口口
口口口⑤
>口口⑤
48
口口口① |----|
口②口口 |①-②③|
口口③口 |④--⑤|
口口口① |--⑥-|

口口口口
口口V口
口>口④
口口④口

口⑤口口
⑤口口口
口口口⑤
口口⑤口

口口口⑥
口口口口
⑥口口口
⑥口口<
49
①②口口 |----|
②V口口 |①-②-|
③口<口 |③--④|
①③口口 |--⑤-|

>口口⑤
口口口⑤
④④口口
⑤④口口
50
口口口① |----|
口口②口 |①-②③|
口③口口 |④--⑤|
口口口① |--⑥-|

口口口口
口V口口
④口<口
口④口口

口口⑤口
口口口⑤
⑤口口口
口⑤口口

⑥口口<
⑥口口口
口口口口
口口口⑥
51
①口口口 |----|
口②口口 |①-②③|
口口③口 |④--⑤|
①口口口 |--⑥-|

口口口口
口口V口
口>口④
口口④口

口⑤口口
⑤口口口
口口口⑤
口口⑤口

VV口口
口口口口
口口口口
⑥⑥口口
52
口⑧④⑤ |--①②|
口口⑦③ |③④⑤-|
口口②⑥ |--⑥-|
⑧⑧口① |⑦-⑧-|
53
①口口② |--①-|
口口③口 |②-③-|
口③口口 |④--⑤|
口口口口 |--⑥-|

口口口口
口V口口
④口<口
口④口口

口口⑤口
口口口⑤
⑤口口口
口⑤口口

>口口⑥
口口口口
口口口口
口口口口
54
口口口口 |-①②③|
口②①口 |④⑤⑥⑦|
⑥⑦③口 |⑧⑨⑩⑪|
④⑤口口 |⑫⑬⑭-|

口⑩口⑧
⑨口口口
口>口⑧
口口口口

>口⑪口
口口口口
口口口⑪
口口口口

⑫口口口
口⑬口口
口口口口
口口口口

口口⑭口
口>口⑭
口口口口
口口口口
55
口口口口 |-①②③|
口口口口 |④⑤⑥⑦|
口②③⑦ |⑧⑨⑩⑪|
④⑥①⑤ |⑫⑬⑭-|

口口口⑨
⑧口<⑧
口口口口
口口口口

口口⑫口
⑪口⑩口
⑪口<口
口口口口

⑭口口<
口口口口
⑭口⑬口
口口口口
56
⑧①口④ |-①②③|
⑦③⑥口 |④⑤⑥⑦|
⑨⑤⑩② |⑧⑨⑩⑪|
口>口⑧ |⑫⑬⑭⑮|

口口口口
口>口⑪
口口口口
口口口⑪

口⑫口口
口⑬口⑭
口>口⑭
⑮口口口
57
口口④③ |①②③-|
口⑥口口 |--④-|
⑤口<③ |⑤⑥⑦⑧|
口①②口 |⑨⑩⑪⑫|

⑧口<口
口口口口
⑧口⑦口
口口口口

⑪⑨口口
⑪口<⑫
口⑩口口
口口口口
58
口⑨⑤④ |①②③④|
⑨⑩⑥口 |⑤⑥⑦⑧⑨⑩⑪⑫|
口⑪⑦② |⑬⑭⑮⑯|
③⑫⑧① |⑰⑱⑲⑳|

⑬口<口
口口口⑭
口口口口
口口口⑮

⑯口口口
口口口口
⑯口<⑰
⑱口口口

口>口⑲
口口⑳口
⑲口口口
口口口口
59
口⑥⑤⑦ |①②③④|
①④口口 |⑤⑥⑦⑧|
口②③口 |⑨--⑩|
口⑦⑧口 |--⑪-|

口口口口
口口口口
口口口口
>口口⑨

⑪口<口
口口口口
口口口口
⑩口口⑩
60
①⑤口< |--①②|
口④③口 |③④⑤-|
口口②① |--⑥-|
口口口口 |⑦-⑧-|

口⑥口口
口口口⑦
口口口口
口口口⑥

口口⑧⑧
口口口口
口口∧∧
口口口口
61
③③①① |--①-|
⑤口④口 |②-③-|
④②⑤② |④--⑤|
①口①口 |--⑥-|

>口口⑥
口口口口
口口口口
⑥口口<
62
口口④④ |----|
①③③口 |--①-|
口②②口 |②--③|
④④口口 |--④-|
63
口④口口 |----|
口③③① |--①-|
口②②口 |②--③|
口口④口 |--④-|
64
口口口口 |----|
①③③口 |--①-|
口②②口 |②--③|
口口口口 |--④-|

口V④口
>口口④
④口口<
口④∧口
65
口口口口 |----|
口口口口 |----|
口口口口 |----|
口口口口 |----|
66
口口口口 |----|
口口口口 |----|
口口口口 |----|
口口口口 |----|
67
口口①口 |①---|
口口口① |----|
①口口口 |----|
口①口口 |----|
最終更新:2022年06月18日 15:09