アットウィキロゴ
けもののおうじゃ★めうめう
日向美ビタースイーツ♪

BASIC

Level: 3
BPM: 162
Notes: 206

1
口口口口 |----|
口口口口 |----|
口口口口 |----|
口口口口 |----|
2
口口口口 |----|
口口口口 |----|
口口口口 |----|
口口口口 |----|
3
口口口口 |①---|
口口口口 |----|
口①①口 |----|
口口口口 |----|
4
口口口口 |----|
口口口口 |----|
口口口口 |----|
口口口口 |----|
5
①口口① |①---|
口口口口 |----|
口口口口 |----|
口口口口 |----|
6
口口口口 |----|
口口口口 |----|
口口口口 |----|
口口口口 |----|
7
口口②① |①---|
口口口口 |----|
口口口口 |②---|
口口口口 |----|
8
②①口口 |①---|
口口口口 |----|
口口口口 |②---|
口口口口 |----|
9
口口口口 |①---|
口①②口 |----|
口口口口 |②---|
口口口口 |----|
10
口口口口 |①---|
口口口① |----|
口口口口 |----|
口口口口 |----|
11
口口②① |①---|
口口口口 |----|
口口口口 |②---|
口口口口 |----|
12
②①口口 |①---|
口口口口 |----|
口口口口 |②---|
口口口口 |----|
13
口口口口 |①---|
口①②口 |----|
口口口口 |②---|
口口口口 |----|
14
①①②② |①---|
口口口口 |----|
口口口口 |②---|
口口口口 |----|
15
口口口口 |①---|
①口口② |----|
口口口口 |②---|
口口口口 |----|
16
口口口口 |①---|
口③口口 |②---|
口①②口 |③---|
口口口口 |----|
17
①②③④ |①---|
口口口口 |②---|
口口口口 |③---|
口口口口 |④---|
18
口口口口 |①---|
口①①口 |----|
口②②口 |②---|
口口口口 |----|
19
④③②① |①---|
口口口口 |②---|
口口口口 |③---|
口口口口 |④---|
20
口口口口 |①---|
口①①口 |----|
口口口口 |----|
口口口口 |----|
21
①②③④ |①---|
口口口口 |②---|
口口口口 |③---|
口口口口 |④---|
22
口口口口 |①---|
口①①口 |----|
口②②口 |②---|
口口口口 |----|
23
口口口口 |①---|
①①②② |----|
口口口口 |②---|
口口口口 |----|
24
口口口口 |①---|
口①③口 |②---|
口②④口 |③---|
口口口口 |④---|
25
④③②① |①---|
口口口口 |②---|
口口口口 |③---|
口口口口 |④---|
26
口口口口 |①---|
口①①口 |----|
口②②口 |②---|
口口口口 |----|
27
④③②① |①---|
口口口口 |②---|
口口口口 |③---|
口口口口 |④---|
28
口口口口 |①---|
口①①口 |----|
口口口口 |----|
口口口口 |----|
29
口口口口 |----|
口②口口 |①---|
口①口口 |②---|
口口口口 |----|
30
口口③口 |①---|
口口②口 |②---|
口口①口 |③---|
口口口口 |----|
31
①①口口 |①---|
口口②② |----|
口口口口 |②---|
口口口口 |----|
32
口口①① |①---|
②②口口 |②---|
口口③③ |③---|
口口口口 |----|
33
②口口口 |①---|
③①①口 |----|
口口口口 |②---|
口口口口 |③---|
34
口②②口 |①---|
口①①口 |----|
口口口口 |②---|
口口口口 |----|
35
口口口① |①---|
口口口② |②---|
口口口③ |③---|
口口口④ |④---|
36
口口口口 |①---|
口口口口 |②---|
口口③口 |③---|
口②①口 |----|
37
②口口口 |①---|
③①①口 |----|
口口口口 |②---|
口口口口 |③---|
38
口②②口 |①---|
口①①口 |----|
口口口口 |②---|
口口口口 |----|
39
①口口口 |①---|
②口口口 |②---|
③口口口 |③---|
④口口口 |④---|
40
口口口口 |①---|
口口口口 |②---|
口③③口 |③---|
口①②口 |----|
41
口口口口 |----|
口口口口 |----|
口口口口 |----|
口口口口 |----|
42
口口口口 |----|
口口口口 |----|
口口口口 |----|
口口口口 |----|
43
②口口② |①---|
口口口口 |----|
口①①口 |--②-|
口口口口 |----|
44
口口口口 |----|
口①②口 |①---|
口口口口 |②---|
口口口口 |----|
45
口口口① |①---|
口口口② |----|
口口口口 |②---|
口口口口 |----|
46
口口口口 |①---|
口口①口 |----|
口口②口 |②---|
口③口口 |③---|
47
口口口口 |①---|
口口口口 |②---|
①②③④ |③---|
口口口口 |④---|
48
口口口口 |①---|
③②①口 |②---|
口口口口 |③---|
口口口口 |----|
49
①②③④ |①---|
口口口口 |②---|
口口口口 |③---|
口口口口 |④---|
50
口口口口 |①---|
口①①口 |----|
口口口口 |----|
口口口口 |----|
51
口口①口 |①---|
口口②口 |②---|
口口③口 |③---|
口口口口 |----|
52
口①口口 |①---|
口②口口 |②---|
口③口口 |③---|
口口口口 |----|
53
口口口口 |①---|
口①①口 |----|
口②②口 |②---|
口口口口 |----|
54
口口口口 |①---|
②口口① |②---|
口③③口 |③---|
口口口口 |----|
55
口口口口 |①---|
口口口口 |②---|
①②③④ |③---|
口口口口 |④---|
56
口口口口 |①---|
③②①口 |②---|
口口口口 |③---|
口口口口 |----|
57
①②③④ |①---|
口口口口 |②---|
口口口口 |③---|
口口口口 |④---|
58
口口口口 |①---|
口①①口 |----|
口口口口 |----|
口口口口 |----|
59
口口口口 |①---|
口口口口 |----|
①②口口 |②---|
口口口口 |----|
60
口口口口 |①---|
口口口口 |----|
口口①② |②---|
口口口口 |----|
61
口口口口 |①---|
口口口口 |----|
口口口口 |②---|
口口②① |----|
62
口口口口 |----|
口口口口 |----|
口②口口 |①---|
口①口口 |②---|
63
口口口口 |①---|
口①①口 |----|
口②②口 |②---|
口口口口 |----|
64
口口口口 |①---|
口②②口 |----|
口②②口 |②---|
口①①口 |----|
65
口口②① |①---|
口口口口 |----|
口口口口 |②---|
口口口口 |----|
66
②①口口 |①---|
口口口口 |----|
口口口口 |②---|
口口口口 |----|
67
口口口口 |①---|
口①②口 |----|
口口口口 |②---|
口口口口 |----|
68
口口口口 |①---|
口口口① |----|
口口口口 |----|
口口口口 |----|
69
口口②① |①---|
口口口口 |----|
口口口口 |②---|
口口口口 |----|
70
②①口口 |①---|
口口口口 |----|
口口口口 |②---|
口口口口 |----|
71
口口口口 |①---|
口①②口 |----|
口口口口 |②---|
口口口口 |----|
72
①①②② |①---|
口口口口 |----|
口口口口 |②---|
口口口口 |----|
73
口口口口 |----|
口口口口 |----|
口口口口 |----|
口口口口 |----|
74
口口口口 |----|
口①①口 |----|
口①①口 |①---|
口口口口 |----|

accuracy: 99.5%
最終更新:2023年06月04日 02:25