アットウィキロゴ
けもののおうじゃ★めうめう
日向美ビタースイーツ♪

ADVANCED

Level: 6
BPM: 162
Notes: 450

1
口口口口 |----|
口口口口 |----|
口口口口 |----|
口口口口 |----|
2
口口口口 |----|
口口口口 |----|
口口口口 |----|
口口口口 |----|
3
口口口口 |①---|
口口口口 |----|
口①①口 |----|
口口口口 |----|
4
口口口口 |----|
口口口口 |----|
口口口口 |----|
口口口口 |----|
5
①口口① |①---|
口口口口 |----|
口口口口 |----|
口口口口 |----|
6
口口口口 |----|
口口口口 |----|
口口口口 |----|
口口口口 |----|
7
口口口口 |①--②|
③口口⑥ |--③-|
⑤口口② |④--⑤|
①口口④ |--⑥-|
8
⑤口口④ |①--②|
⑦③口⑥ |--③-|
口口②口 |④-⑤-|
口①口口 |⑥-⑦-|
9
口口口口 |①--②|
口⑥③口 |--③-|
口②⑤口 |④--⑤|
口④①口 |--⑥-|
10
口口①① |①---|
口口口口 |----|
口口口口 |----|
口口口口 |----|
11
口口口口 |①--②|
⑥口口③ |--③-|
②口口⑤ |④--⑤|
④口口① |--⑥-|
12
口口①口 |--①-|
口②口口 |--②-|
⑥口口⑤ |③④-⑤|
口④③口 |--⑥-|
13
口⑥⑤口 |--①-|
⑥②①⑤ |②-③-|
口④③口 |④--⑤|
口口口口 |--⑥-|
14
口口口口 |①-②-③-|
口④①口 |--④-⑤-|
口⑤②口 |⑥---|
口⑥③口 |----|
15
①①②② |①---|
口口口口 |----|
口口口口 |②---|
口口口口 |----|
16
口口口口 |①---|
口③③口 |②---|
①①②② |③---|
口③③口 |----|
17
口口口口 |--①-|
⑦⑥⑤④ |②-③-|
①②③口 |④-⑤-|
口口口口 |⑥-⑦-|
18
口①①口 |①---|
口口⑥② |②-③-|
③⑤口口 |--④-|
口口④口 |⑤-⑥-|
19
口③②① |--①-|
④⑤⑥⑦ |②-③-|
口口口口 |④-⑤-|
口口口口 |⑥-⑦-|
20
①②②① |①---|
口口口口 |----|
口②②口 |②---|
口口口口 |----|
21
口口口口 |--①-|
⑦⑥⑤④ |②-③-|
①②③口 |④-⑤-|
口口口口 |⑥-⑦-|
22
口①①口 |①---|
口④④⑤ |②-③-|
口③②口 |--④-|
口口口口 |--⑤-|
23
口口口口 |①---|
①口口口 |②---|
③口②③ |③---|
口④口口 |④---|
24
④④口口 |①---|
口口①③ |②---|
口①②口 |③---|
口③口口 |④---|
25
口口口口 |--①-|
⑦⑥⑤④ |②-③-|
①②③口 |④-⑤-|
口口口口 |⑥-⑦-|
26
口①①口 |①---|
口口⑥② |②-③-|
③⑤口口 |--④-|
口口④口 |⑤-⑥-|
27
口③②① |--①-|
④⑤⑥⑦ |②-③-|
口口口口 |④-⑤-|
口口口口 |⑥-⑦-|
28
①②②① |①---|
口口口口 |----|
口②②口 |②---|
口口口口 |----|
29
口口口口 |--①-|
④③②① |②-③-|
口口口口 |④---|
口口口口 |----|
30
口口口口 |①-②-|
口口口口 |③-④-|
②③④口
口①①口

口口口口
口口口口
口口口⑤ |⑤---|
口⑥口口 |--⑥-|
31
口口口口 |--①-|
①②⑤④ |②---|
口③③口 |③---|
口口口口 |④-⑤-|
32
①①口② |①-②-|
口口口口 |③-④-|
③③口④ |⑤---|
口⑤⑤口 |----|
33
口口口口 |①---|
口口口口 |②-③-|
①①口③
口口口②

口口口口
口口口④
口⑤⑥口 |④---|
口口口口 |⑤-⑥-|
34
口①①口 |①---|
②口口③ |②-③-|
④口⑤⑤ |④---|
口口⑤⑤ |⑤---|
35
①口口⑤ |①-②-|
②口口⑥ |③-④-|
③口口⑦ |⑤-⑥-|
④口口⑧ |⑦-⑧-|
36
⑥⑦⑦⑥ |①-②-|
口①②口 |③-④-|
口③④口 |⑤-⑥-|
口⑤口口 |⑦---|
37
口口口口 |①---|
口口口口 |②-③-|
①①口③
口口口②

口口口口
口④⑤口
口⑥⑦口 |④-⑤-|
口口口口 |⑥-⑦-|
38
口①①口 |①---|
②口口③ |②-③-|
④口⑤⑤ |④---|
口口⑤⑤ |⑤---|
39
①口口⑤ |①-②-|
②口口⑥ |③-④-|
③口口⑦ |⑤-⑥-|
④口口⑧ |⑦-⑧-|
40
口口口口 |①---|
口口口口 |②---|
口①①口
口②②口

③口口③
口④④口
口⑤⑤口 |③-④-|
口口口口 |⑤---|
41
口②①口 |①---|
口口口口 |②---|
⑤口口口 |③---|
口④③口 |④-⑤-|
42
⑤口口口 |--①-|
口①②口 |②-③-|
口③④口 |④---|
口口口口 |⑤---|
43
口口①① |①-②-|
⑥⑥②② |③---|
⑤⑤③③ |--④-|
④④口口 |⑤-⑥-|
44
口口口口 |----|
口口②② |①---|
口②①口 |②---|
口②口口 |----|
45
口口口口 |①--②|
①口口④ |--③-|
⑤口口② |④--⑤|
③口口⑥ |--⑥-|
46
口口口口 |①--②|
口③口口 |--③-|
口口②口
口①口口

口口口④
口口口口
口口口口 |④---|
⑤⑤口口 |⑤---|
47
口④①口 |①--②|
④②⑤① |--③-|
口⑥③口 |④--⑤|
口口口口 |--⑥-|
48
①口口① |①--②|
④②口④ |--③-|
⑤口③口 |④---|
口口口口 |--⑤-|
49
口①②口 |①---|
口③口口 |②---|
口口④口 |③--④|
口⑤口口 |--⑤-|
50
①口口① |①---|
口口口口 |----|
口口口口 |----|
口口口口 |----|
51
①④④口 |①--②|
口①口口 |--③-|
口口②口 |④---|
口③口口 |----|
52
口④④① |①--②|
口口①⑤ |--③-|
口②口口 |④---|
口口③口 |--⑤-|
53
口③④口 |①---|
⑤②口⑤ |②---|
⑤口①⑤ |③--④|
口④③口 |--⑤-|
54
④口口⑤ |①-②-|
口①②口 |③-④⑤|
口③口口 |----|
口口口口 |----|
55
口④①口 |①--②|
④②⑤① |--③-|
口⑥③口 |④--⑤|
口口口口 |--⑥-|
56
①口口① |①--②|
④②口④ |--③-|
口口③口 |④---|
口⑤口口 |--⑤-|
57
口口口口 |①---|
③②②③ |②---|
口④④口 |③--④|
⑤口①⑤ |--⑤-|
58
口口口口 |①---|
口①①口 |----|
口口口口 |----|
②口口口 |--②-|
59
口口口口 |①---|
④口③口 |--②-|
口①口② |③---|
口口口口 |--④-|
60
⑤①口④ |①--②|
口口口② |--③-|
口③口口 |④---|
口口口口 |--⑤-|
61
口口口口 |①---|
口①口② |--②-|
口口③口 |③---|
口口口口 |----|
62
口④③口 |①---|
②口口② |②---|
①口口① |③---|
口③④口 |④---|
63
①口口① |①--②|
④②②④ |--③-|
③⑤⑤③ |④--⑤|
⑥口口⑥ |--⑥-|
64
①④④① |①--②|
口②②口 |--③-|
③口口③ |④---|
口口口口 |----|
65
口口口口 |①--②|
③口口⑥ |--③-|
⑤口口② |④--⑤|
①口口④ |--⑥-|
66
⑤口口④ |①--②|
⑦③口⑥ |--③-|
口口②口 |④-⑤-|
口①口口 |⑥-⑦-|
67
口口口口 |①--②|
口⑥③口 |--③-|
口②⑤口 |④--⑤|
口④①口 |--⑥-|
68
口口①① |①---|
口口口口 |----|
口口口口 |----|
口口口口 |----|
69
口口口口 |①--②|
⑥口口③ |--③-|
②口口⑤ |④--⑤|
④口口① |--⑥-|
70
口口①口 |--①-|
口②口口 |--②-|
⑥口口⑤ |③④-⑤|
口④③口 |--⑥-|
71
口⑥⑤口 |--①-|
⑥②①⑤ |②-③-|
口④③口 |④--⑤|
口口口口 |--⑥-|
72
口口口口 |①-②-③-|
口④①口 |--④-⑤-|
口⑤②口 |⑥---|
口⑥③口 |----|
73
①口口② |--①-|
口③口口 |--②-|
口④口口 |③---④-|
口⑤口口 |--⑤---|
74
②②②② |①---|
口口口口 |----|
①口口① |②---|
口口口口 |----|

accuracy: 99.5%
最終更新:2023年06月04日 02:49