アットウィキロゴ
けもののおうじゃ★めうめう
日向美ビタースイーツ♪

EXTREME

Level: 8
BPM: 162
Notes: 697

1
口口口口 |----|
口口口口 |----|
口口口口 |----|
口口口口 |----|
2
口口口口 |----|
口口口口 |----|
口口口口 |----|
口口口口 |----|
3
口口口口 |①---|
口口口口 |----|
口①①口 |----|
口口口口 |----|
4
口口口口 |----|
口口口口 |----|
口口口口 |----|
口口口口 |----|
5
①口口① |①---|
口口口口 |----|
口口口口 |----|
口口口口 |----|
6
口①口口 |①②-③|
口②口④ |④-⑤-|
口口⑤口
口口③口

口口口口
⑦⑩⑨口
口⑥口口 |⑥-⑦-|
口⑧口口 |⑧⑨⑩-|
7
③①④⑥ |①--②|
④口口① |--③-|
②口口⑤ |④--⑤|
⑥⑤②③ |--⑥-|
8
③①⑥口 |①--②|
口口⑤① |--③-|
②⑦口口 |④-⑤-|
口④②③ |⑥-⑦-|
9
③①④口 |①--②|
④口口① |--③-|
②⑥口⑤ |④--⑤|
⑥⑤②③ |--⑥-|
10
口④③① |①-②-|
口口①⑤ |③④-⑤|
②口口口
口口口口

口口口⑨
口⑥⑨口
口⑧⑦口 |-⑥-⑦|
口口口口 |⑧-⑨-|
11
④③③⑤ |①--②|
①⑥⑥② |--③-|
口⑤④口 |④--⑤|
口②①口 |--⑥-|
12
⑤②①口 |--①-|
口⑤口口 |--②-|
②口⑥① |③④-⑤|
口④③⑥ |--⑥-|
13
⑥③口⑥ |--①-|
④口②④ |②-③-|
口①口口 |④--⑤|
⑤口口⑤ |--⑥-|
14
口口口口 |①-②-③-|
④①①④ |--④-⑤-|
⑤②②⑤ |⑥---|
⑥③③⑥ |----|
15
①口口③ |①---|
口②②口 |②---|
④①③④ |③---|
口口口口 |④---|
16
③③③③ |①---|
①①②② |②---|
口③③口 |③---|
④①②口 |④---|
17
⑧⑦⑥⑤ |①-②-|
②口④口 |③-④-|
口③口口 |⑤-⑥-|
口口口① |⑦-⑧-|
18
口口口⑥ |①---|
口②③⑤ |②-③-|
口①①④ |--④-|
口口口口 |⑤-⑥-|
19
④⑥⑤口 |--①②|
⑥②①⑤ |③-④-|
⑦口③⑧ |⑤-⑥-|
口⑦⑧口 |⑦-⑧-|
20
⑥⑩⑤① |①②③④|
⑩⑦②⑤ |⑤---|
口③⑧口 |⑥⑦⑧⑨|
④口口⑨ |⑩---|
21
口口口口 |--①-|
口口②口 |②-③-|
口③口① |④-⑤-|
④⑤⑥⑦ |⑥-⑦-|
22
口口④③ |①---|
口①①口 |②-③-|
口⑤②口 |--④-|
口口口口 |--⑤-|
23
口口口口 |①---|
①①③③ |②---|
口④②口 |③---|
口①③口 |④---|
24
②①①② |①---|
①①口口 |②---|
①口口口
口口口口

口④④口
口口③③
口③③口 |③---|
口③口口 |④---|
25
⑧⑦⑥⑤ |①-②-|
②口④口 |③-④-|
口③口口 |⑤-⑥-|
口口口① |⑦-⑧-|
26
口口口⑥ |①---|
口②③⑤ |②-③-|
口①①④ |--④-|
口口口口 |⑤-⑥-|
27
④口口口 |--①②|
口②①口 |③-④-|
⑤口③⑧ |⑤-⑥-|
口⑥⑦口 |⑦-⑧-|
28
⑥⑩⑤① |①②③④|
⑩⑦②⑤ |⑤---|
口③⑧口 |⑥⑦⑧⑨|
④口口⑨ |⑩---|
29
⑥口口⑥ |--①-|
口口④口 |②-③-|
口②③口 |④-⑤-|
口①⑤口 |⑥---|
30
⑧③②⑧ |①-②③|
⑥口④口 |④-⑤-|
⑤口口口 |⑥-⑦-|
⑨①⑦⑨ |⑧-⑨-|
31
④口④口 |①-②-|
口②①口 |③---|
⑤口③口 |④---|
口口⑥口 |⑤-⑥-|
32
口②③① |①-②-|
口④①③ |③-④-|
口⑤⑤口 |⑤---|
口⑥⑥口 |⑥---|
33
①口口② |①---|
口口③口 |②-③-|
①口口④ |④---|
口⑤⑥口 |⑤-⑥-|
34
口口口口 |①---|
①口口口 |②-③-|
口口口③
①口口②

口⑤口口
⑤口⑤④
口⑤口口 |④---|
口口口口 |⑤---|
35
①⑤①⑤ |①-②-|
口②⑥口 |③-④-|
③⑦③⑦ |⑤-⑥-|
口④⑧口 |⑦-⑧-|
36
⑤⑨①⑤ |①②③④|
⑥②⑧⑥ |⑤-⑥-|
⑦⑧③⑦ |⑦-⑧-|
口④⑨口 |⑨---|
37
⑦口口② |①---|
口①③⑥ |②-③-|
口⑤口口 |④-⑤-|
口①④口 |⑥-⑦-|
38
口口口口 |①---|
口口②口 |②-③-|
①口口口
③①口口

⑤口⑤口
口⑤口口
⑤口⑤口 |④---|
口口口④ |⑤---|
39
⑤口口① |①-②-|
⑥口口② |③-④-|
⑦口口③ |⑤-⑥-|
⑧口口④ |⑦-⑧-|
40
④⑦⑥② |①-②-|
⑤③③⑤ |③-④-|
⑤①①⑤ |⑤-⑥-|
口⑥⑦口 |⑦---|
41
口口口① |①---|
口口②口 |②---|
口⑤口③ |③---|
口④口口 |④-⑤-|
42
口口①⑤ |--①-|
口②口口 |②-③-|
口口③口 |④---|
口④口口 |⑤---|
43
口口③口 |①-②-|
口②①口 |③---|
口①②口
口③口口

④口口⑥
口口⑤口
口⑤口口 |--④-|
⑥口口④ |⑤-⑥-|
44
口①①口 |----|
①①②② |①---|
①②②口 |②---|
口②口口 |----|
45
④①④① |①--②|
口口口口 |--③-|
②口口⑤ |④--⑤|
口⑥③口 |--⑥-|
46
④①④① |①--②|
口口口口 |--③-|
②口口口 |④---|
口⑤③口 |⑤---|
47
④②④口 |①--②|
①⑤③口 |--③-|
⑥②⑥口 |④--⑤|
①口③口 |--⑥-|
48
③⑤⑤④ |①--②|
①口口① |--③-|
口口口口 |④---|
④②②③ |--⑤-|
49
②口口② |①---|
口口口口 |②---|
①口口③ |③--④|
④①③⑤ |--⑤-|
50
口口口⑤ |①-②-|
②①①口 |③④-⑤|
口①①口
口④③口

⑧口口口
口⑨⑨⑦
⑥⑨⑨口 |-⑥⑦⑧|
口口口口 |⑨---|
51
口口口③ |①--②|
口口口口 |--③-|
口口口③
②②①①

④口口口
口口口⑤
④口口口 |④-⑤-|
口口⑥口 |⑥---|
52
③①②③ |①--②|
⑤口⑦口 |--③-|
口①②口 |④-⑤-|
④⑥口④ |⑥-⑦-|
53
口口口② |①---|
口①口口 |②---|
口口口口
口口口口

口口④口
口⑤④④
③③⑤口 |③--④|
口③口口 |--⑤-|
54
③①⑤⑤ |①-②-|
①口⑤⑤ |③-④⑤|
④④口②
④④②③

口⑦口口
⑦⑦口口
口口⑥口 |--⑥-|
口口口口 |⑦---|
55
①④⑤② |①--②|
④口口⑤ |--③-|
③⑥⑥③ |④--⑤|
⑤②①④ |--⑥-|
56
①③口② |①--②|
口口口口 |--③-|
口口口③
口①②口

口口④口
口口口口
④口口口 |④---|
口⑤口口 |--⑤-|
57
①口③④ |①---|
口①④③ |②---|
口口口② |③--④|
⑤口②⑤ |--⑤-|
58
口口④口 |①-②-|
口⑤⑤口 |③④-⑤|
②①①③
口口口口

⑥口口口
口口口口
口口⑨口 |-⑥-⑦|
口⑧⑦⑨ |⑧-⑨-|
59
②①②① |①---|
口口口口 |--②-|
口③口口 |③---|
③口④口 |--④-|
60
②⑤⑤③ |①--②|
②④④③ |--③-|
②口①③ |④---|
口口口口 |--⑤-|
61
口口口② |①---|
口③口口 |--②-|
口口口口 |③---|
②①①③ |----|
62
①口①④ |①---|
口③口② |②---|
①口③口 |③---|
④②口② |④---|
63
①④①④ |①--②|
②⑤②⑤ |--③-|
③⑥③⑥ |④--⑤|
口口口口 |--⑥-|
64
③口③口 |①--②|
①口①口 |--③-|
口口口口
②口②口

口口口口
口⑤⑤口
口⑤⑤口 |④---|
口④口④ |⑤---|
65
③①④⑥ |①--②|
④口口① |--③-|
②口口⑤ |④--⑤|
⑥⑤②③ |--⑥-|
66
③①⑥口 |①--②|
口口⑤① |--③-|
②⑦口口 |④-⑤-|
口④②③ |⑥-⑦-|
67
③①④口 |①--②|
④口口① |--③-|
②⑥口⑤ |④--⑤|
⑥⑤②③ |--⑥-|
68
口④③① |①-②-|
口口①⑤ |③④-⑤|
②口口口
口口口口

口口口⑨
口⑥⑨口
口⑧⑦口 |-⑥-⑦|
口口口口 |⑧-⑨-|
69
④③③⑤ |①--②|
①⑥⑥② |--③-|
口⑤④口 |④--⑤|
口②①口 |--⑥-|
70
⑤②①口 |--①-|
口⑤口口 |--②-|
②口⑥① |③④-⑤|
口④③⑥ |--⑥-|
71
⑥③口⑥ |--①-|
④口②④ |②-③-|
口①口口 |④--⑤|
⑤口口⑤ |--⑥-|
72
口口口口 |①-②-③-|
④①①④ |--④-⑤-|
⑤②②⑤ |⑥---|
⑥③③⑥ |----|
73
②口口口 |--①-|
口③④① |--②-|
口④⑤口 |③---④-|
口①口口 |--⑤---|
74
口②②口 |①---|
口②口② |----|
②②口① |②---|
②②①口 |----|

accuracy: 99.5%
最終更新:2023年06月04日 03:04