アットウィキロゴ
ミラクル・スイート・スイーツ・マジック!!
日向美ビタースイーツ♪

BASIC

Level: 3
BPM: 88-206
Notes: 207

1
口口口口 |(206)----|
口口口口 |----|
口口口口 |----|
口口口口
2
口口口口 |----|
口口口口 |----|
口口口口 |----|
口口口口
3
口口口口 |----|
口口口口 |----|
口口口口 |----|
口口口口
4
口口口口 |①---|
①口口口 |----|
口口口口 |----|
口口口口
5
口口口口 |----|
口口口口 |----|
口口口口 |----|
口口口口
6
口口口口 |①---|
口①口口 |----|
口口口口 |----|
口口口口
7
口口口口 |----|
口口口口 |----|
口口口口 |----|
口口口口
8
口口口口 |①---|
口口①口 |----|
口口口口 |----|
口口口口
9
口口口口 |----|
口口口口 |----|
口口口口 |----|
口口口口
10
口口口口 |①---|
口口口① |----|
口口口口 |----|
口口口口
11
口口口口 |----|
口口口口 |----|
口口口口 |----|
口口口口
12
口口口口 |①---|
口口口口 |----|
口口口① |----|
口口口口
13
口口口口 |----|
口口口口 |----|
口口口口 |----|
口口口口
14
口口口口 |①---|
口口口口 |----|
口口①口 |----|
口口口口
15
口口口口 |----|
口口口口 |----|
口口口口 |----|
口口口口
16
口口口口 |①---|
口口口口 |----|
口①口口 |----|
口口口口
17
口口口口 |----|
口口口口 |----|
口口口口 |----|
口口口口
18
口口口口 |(186)①---|
口口口口 |----|
①口口口 |----|
口口口口
19
口口口口 |(128)----|
口口口口 |----|
口口口口 |(88)----|
口口口口
20
口口口口 |----|
口口口口 |----|
口口口口 |----|
口口口口 |----|
21
口口口口 |(206)①---|
①口口② |----|
口口口口 |②---|
口口口口 |----|
22
口口口口 |①---|
口口口口 |----|
①口口② |②---|
口口口口 |----|
23
口口口口 |①---|
口①①口 |----|
口口口口 |----|
口口口口 |----|
24
口口口口 |①---|
口口口口 |----|
口①①口 |----|
口口口口 |----|
25
口口口口 |①---|
口①口口 |----|
口②口口 |②---|
口口口口 |----|
26
口口口口 |①---|
口口②口 |----|
口口①口 |②---|
口口口口 |----|
27
口口口口 |①---|
①口口口 |----|
②口口口 |②---|
口口口口 |----|
28
口口口口 |①---|
口②②口 |----|
口①①口 |②---|
口口口口 |----|
29
①②口口 |①---|
口口口口 |----|
口口口口 |②---|
口口口口 |----|
30
口口②① |①---|
口口口口 |----|
口口口口 |②---|
口口口口 |----|
31
口口口口 |①---|
①②口口 |----|
口口口口 |②---|
口口口口 |----|
32
口口口口 |①---|
口口②① |----|
口口口口 |②---|
口口口口 |----|
33
口口口口 |①---|
口口口口 |----|
口①②口 |②---|
口口口口 |----|
34
口口口口 |①---|
口口口口 |----|
口口口口 |②---|
口①②口 |----|
35
口口口口 |①---|
口口口口 |----|
口口口口 |②---|
①口口② |----|
36
口口口口 |①---|
口口口口 |----|
①口口② |②---|
口口口口 |----|
37
口口口口 |①---|
口①口口 |----|
口口口口 |----|
口口口口
38
口口口口 |----|
口口口口 |----|
口口口口 |----|
口口口口
39
口口口口 |①---|
口口①口 |----|
口口口口 |----|
口口口口
40
口口口口 |----|
口口口口 |----|
口口口口 |----|
口口口口
41
口口口口 |①---|
口口口口 |----|
口①口口 |----|
口口口口
42
口口口口 |----|
口口口口 |----|
口口口口 |----|
口口口口
43
口口口口 |①---|
口口口口 |----|
口口①口 |----|
口口口口
44
口口口口 |----|
口口口口 |----|
口口口口 |----|
口口口口
45
口口口口 |①---|
口①①口 |----|
口口口口 |----|
口口口口
46
口口口口 |----|
口口口口 |----|
口口口口 |----|
口口口口
47
口口口口 |①---|
口口①口 |----|
口口口口 |----|
口口口口
48
口口口口 |----|
口口口口 |----|
口口口口 |----|
口口口口
49
口口口口 |①---|
口口口口 |----|
口①口口 |----|
口口口口
50
口口口口 |----|
口口口口 |----|
口口口口 |----|
口口口口
51
口口口口 |①---|
口口口口 |----|
口口①口 |----|
口口口口
52
口口口口 |----|
口口口口 |----|
口口口口 |----|
口口口口 |----|
53
口①口口 |①---|
口②口口 |----|
口口口口 |②---|
口口口口 |----|
54
口口口口 |①---|
口口口口 |----|
口①口口 |②---|
口②口口 |----|
55
口口①口 |①---|
口口②口 |----|
口口口口 |②---|
口口口口 |----|
56
口口口口 |①---|
口口口口 |----|
口口①口 |②---|
口口②口 |----|
57
口口口口 |①---|
口口口口 |----|
①口口口 |----|
口口口口
58
口口口口 |①---|
口口口口 |----|
口口口① |----|
口口口口
59
口口口口 |①---|
①口口口 |----|
口口口口 |----|
口口口口
60
口口口口 |①---|
口口口① |----|
口口口口 |----|
口口口口
61
口①口口 |①---|
口口②口 |--②-|
口口口口 |----|
口口口口
62
口口口口 |①---|
口口口口 |--②-|
口①口口 |----|
口口②口
63
口口口口 |①---|
口口口口 |--②-|
②口口② |----|
①口口①
64
②口口② |①---|
①口口① |--②-|
口口口口 |----|
口口口口
65
口口口口 |①---|
口①口口 |----|
口口②口 |②---|
口口口口 |----|
66
口口口口 |①---|
口口②口 |----|
口①口口 |②---|
口口口口 |----|
67
口口口口 |①---|
口口口口 |----|
口①①口 |----|
口口口口 |----|
68
口口口口 |①---|
口①①口 |----|
口口口口 |----|
口口口口 |----|
69
口口口口 |①---|
口口口口 |----|
①口口① |----|
口口口口 |----|
70
口口口口 |①---|
①口口① |----|
口口口口 |----|
口口口口 |----|
71
口口口口 |①---|
口口口口 |②---|
口①②口 |③---|
口③④口 |④---|
72
口口口口 |----|
口口口口 |----|
口口口口 |----|
口口口口 |----|
73
①口口口 |①---|
②口口口 |----|
口口口口 |②---|
口口口口 |----|
74
口口口口 |①---|
口③④口 |②---|
口①②口 |③---|
口口口口 |④---|
75
口口口① |①---|
口口口② |----|
口口口口 |②---|
口口口口 |----|
76
口口口口 |①---|
口③④口 |②---|
口①②口 |③---|
口口口口 |④---|
77
口口口口 |①---|
①口口口 |----|
口②口口 |②---|
口口口口 |----|
78
口口口口 |①---|
口口口② |----|
口口①口 |②---|
口口口口 |----|
79
口口口口 |①---|
口①①口 |----|
口②②口 |②---|
口口口口 |----|
80
口口口口 |①---|
②口口② |----|
口口口口 |②---|
口①①口 |----|
81
①口口口 |①---|
②口口口 |----|
口口口口 |②---|
口口口口 |----|
82
口口口口 |①---|
口③④口 |②---|
口①②口 |③---|
口口口口 |④---|
83
口口口① |①---|
口口口② |----|
口口口口 |②---|
口口口口 |----|
84
口口口口 |①---|
口③④口 |②---|
口①②口 |③---|
口口口口 |④---|
85
口①①口 |①---|
口②口口 |----|
口口口口 |②---|
口口口口 |----|
86
口口口口 |①---|
口口口口 |----|
口口①口 |②---|
口②口口 |----|
87
口口口口 |①---|
②口口② |----|
①口口① |②---|
口口口口 |----|
88
①口口① |①---|
口②②口 |----|
口②②口 |②---|
口口口口 |----|
89
口口口口 |①---|
②口口② |----|
①口口① |②---|
口口口口 |----|
90
①口口① |①---|
口②②口 |----|
口②②口 |②---|
口口口口 |----|
91
口口口口 |①---|
①②口口 |----|
口口口口 |②---|
口口口口 |----|
92
口口口口 |①---|
口口①② |----|
口口口口 |②---|
口口口口 |----|
93
①口口口 |①---|
②口口口 |----|
口口口口 |②---|
口口口口 |----|
94
口口口口 |①---|
口③④口 |②---|
口①②口 |③---|
口口口口 |④---|
95
口口口① |①---|
口口口② |----|
口口口口 |②---|
口口口口 |----|
96
口口口口 |①---|
口③④口 |②---|
口①②口 |③---|
口口口口 |④---|
97
口①①口 |①---|
口②口口 |----|
口口口口 |②---|
口口口口 |----|
98
口口口口 |①---|
口口①② |----|
口口口口 |②---|
口口口口 |----|
99
口口口口 |①---|
口口口口 |----|
口口②① |②---|
口口口口 |----|
100
口口口口 |①---|
口口口口 |----|
②①口口 |②---|
口口口口 |----|
101
①口口口 |①---|
②口口口 |----|
口口口口 |②---|
口口口口 |----|
102
口口口口 |①---|
口③④口 |②---|
口①②口 |③---|
口口口口 |④---|
103
口口口① |①---|
口口口② |----|
口口口口 |②---|
口口口口 |----|
104
口口口口 |①---|
口③④口 |②---|
口①②口 |③---|
口口口口 |④---|
105
口口口口 |①---|
①②口口 |----|
口口口口 |②---|
口口口口 |----|
106
口口口口 |①---|
口口①② |----|
口口口口 |②---|
口口口口 |----|
107
①口口① |①---|
②口口② |----|
口口口口 |②---|
口口口口 |----|
108
口口口口 |①---|
口口口口 |----|
①口口① |②---|
②口口② |----|
109
口口口口 |①---|
口口口口 |----|
口①口口 |----|
口口口口 |----|
110
口口口口 |①---|
口①口口 |----|
口口口口 |----|
口口口口 |----|
111
口口口口 |①---|
口口口口 |----|
口口①口 |----|
口口口口 |----|
112
口口口口 |①---|
口口①口 |----|
口口口口 |----|
口口口口 |----|
113
口口口口 |①---|
口口口口 |----|
口①①口 |----|
口口口口 |----|

accuracy: 99.5%
最終更新:2023年06月04日 04:46