アットウィキロゴ
ミラクル・スイート・スイーツ・マジック!!
日向美ビタースイーツ♪

ADVANCED

Level: 7
BPM: 88-206
Notes: 451

1
口口口口 |(206)----|
口口口口 |----|
口口口口 |----|
口口口口
2
①口口口 |----|
口口口口 |----|
口口口口 |①---|
口口口口
3
口口口口 |①---|
口①口口 |②---|
口口②口 |③---|
口口口③
4
口口口口 |①---|
口口口口 |②---|
口口口口 |③---|
①②③口
5
口口口口 |①---|
口口口口 |②---|
口③②① |③---|
口口口口
6
口口口口 |①---|
①②③口 |②---|
口口口口 |③---|
口口口口
7
口③②① |①---|
口口口口 |②---|
口口口口 |③---|
口口口口
8
口口口口 |①---|
①②③口 |②---|
口口口口 |③---|
口口口口
9
口口口口 |①---|
口口口口 |②---|
口③②① |③---|
口口口口
10
口口口口 |①---|
口口口口 |②---|
口口口口 |③---|
①②③口
11
口口口口 |①---|
口口口口 |②---|
口③②① |③---|
口口口口
12
①口口口 |①---|
②口口口 |②---|
③口口口 |③---|
口口口口
13
口口口① |①---|
口口口② |②---|
口口口③ |③---|
口口口口
14
口①口口 |①---|
口②口口 |②---|
口③口口 |③---|
口口口口
15
口口①口 |①---|
口口②口 |②---|
口口③口 |③---|
口口口口
16
①口口口 |①---|
②口口口 |②---|
③口口口 |③---|
口口口口
17
口口口① |①---|
口口口② |②---|
口口口③ |③---|
口口口口
18
口①口口 |(186)①---|
口②口口 |②---|
口③口口 |③---|
口口口口
19
口口①口 |(128)①---|
口②口口 |②---|
口口③口 |(88)③---|
口口口口
20
口口口口 |----|
口口口口 |----|
口口口口 |----|
口口口口 |----|
21
口④口口 |(206)----|
口①②口 |--①-|
口③口口 |②-③-|
口口口口 |--④-|
22
②口①③ |①---|
④口口口 |②---|
口口口口 |③---|
口口口口 |④---|
23
口口口口 |①---|
口口口① |②-③-|
口②③口 |----|
口口口口 |----|
24
口口口口 |----|
口①②口 |----|
口③④口 |①-②-|
口口口口 |③-④-|
25
④②③⑤ |①---|
口口口口 |②-③-|
口口口口 |--④-|
口①口口 |--⑤-|
26
口口口口 |----|
口口口口 |----|
口①②口 |--①-|
口③口口 |②-③-|
27
口②③口 |①---|
口④⑤口 |②-③-|
口⑥⑦口 |④-⑤-|
口口①口 |⑥-⑦-|
28
口口口口 |----|
③口口口 |----|
口口口② |--①-|
①口口口 |②-③-|
29
⑥口口① |①---|
口口口⑤ |②-③-|
④②③口 |--④-|
口口口口 |⑤-⑥-|
30
口口口口 |----|
口①口口 |①---|
口②口口 |②---|
口③口口 |③---|
31
③③口口 |①---|
②②口口 |②-③-|
口口口口 |----|
口口①口 |----|
32
①口口口 |----|
口口口② |----|
③口口口 |①-②-|
口口口④ |③-④-|
33
口口口③ |①---|
②①①④ |②-③-|
口口口⑤ |--④-|
口口口口 |--⑤-|
34
口口口口 |----|
口①②③ |----|
口口口口 |--①-|
口口口口 |②-③-|
35
口口口口 |①-②-|
口口口口 |③-④-|
④③②① |⑤-⑥-|
⑤⑥⑦⑧ |⑦-⑧-|
36
口口口口 |----|
口口口口 |----|
口口口口 |----|
口口口口 |----|
37
口口⑤口 |①-②-|
口口③④ |③-④-|
口口①② |⑤---|
口口口口
38
口口口口 |①---|
口①口口 |②---|
②③口口 |--③-|
口口口口
39
③④口口 |①---|
口②口口 |②---|
口口①口 |③-④-|
口口口口
40
口口①口 |①---|
②③口口 |----|
口口口口 |②-③-|
口口口口
41
口口口口 |①---|
口口①口 |②---|
口②口口 |③---|
口口③口
42
口口口口 |①---|
口③口口 |②---|
口口②口 |③---|
口①口口
43
口口①① |①---|
口口口口 |----|
口口口口 |----|
口口口口
44
口口口口 |----|
口口口口 |----|
口口口口 |----|
口口口口
45
口口口口 |①---|
①口口① |----|
②③口口 |②-③-|
口口口口
46
口口③口 |①---|
口②口口 |②---|
口口①口 |③---|
口口口口
47
口①口口 |①---|
口口②口 |②---|
口③口口 |③---|
口口口口
48
口口口口 |①---|
口②③口 |----|
口口口口 |②-③-|
口口①口
49
口③④口 |①-②-|
①口口② |----|
口口口口 |③-④-|
口口口口
50
①口口② |①-②-|
口口口口 |----|
口口口口 |----|
口口口口
51
口口口口 |①---|
口②③④ |②-③-|
口①口口 |④---|
口口口口
52
③②①口 |①-②-|
口口口口 |③---|
口口口口 |----|
口口口口 |----|
53
口⑥口口 |①-②-|
⑤⑦④口 |③-④-|
口③⑧② |⑤-⑥-|
口口①口 |⑦-⑧-|
54
口口口口 |----|
口口口口 |----|
口口口口 |----|
口口口口 |----|
55
口①口口 |①-②-|
②⑧③口 |③-④-|
口④⑦⑤ |⑤-⑥-|
口口⑥口 |⑦-⑧-|
56
口口口口 |----|
口口口口 |----|
口口口口 |----|
口口口口 |----|
57
口口口口 |①---|
口口口口 |②---|
①②③口 |③---|
①②③口
58
口③②① |①---|
口③②① |②---|
口口口口 |③---|
口口口口
59
口口口口 |①---|
口口口口 |②---|
①②③口 |③---|
①②③口
60
口③②① |①---|
口③②① |②---|
口口口口 |③---|
口口口口
61
口口口口 |①-②-|
口口口口 |--③-|
口③④口 |④---|
口①②口
62
③③口口 |①-②-|
口①②口 |--③-|
口口口口 |----|
口口口口
63
口口①口 |①---|
口②口① |--②-|
口口②口 |----|
口口口口
64
口口口② |①---|
口口②口 |--②-|
①②口口 |----|
②①口口
65
口口口口 |----|
口①②口 |----|
口口口口 |①-②-|
口口③口 |--③-|
66
口口口③ |--①-|
②口口口 |--②-|
口①口口 |----|
口口口口 |③---|
67
口①①口 |①---|
口②②口 |--②-|
口③③口 |----|
口口口口 |③---|
68
口口口口 |----|
口口口口 |----|
口口口口 |----|
口口口口 |----|
69
口口口口 |①---|
③口口③ |--②-|
口②②口 |----|
口①①口 |③---|
70
口口口口 |----|
口口口口 |----|
口口口口 |----|
口口口口 |----|
71
口口口口 |①---|
口①②口 |②---|
口口③口 |③---|
口④口口 |④---|
72
口口口口 |----|
口口口口 |----|
口口口口 |----|
口口口口 |----|
73
⑤④①⑤ |①---|
④口口① |②-③-|
口②③口 |--④-|
口口口口 |--⑤-|
74
口④④口 |----|
口①口口 |①-②-|
口口②口 |③---|
口③口口 |④---|
75
④⑤⑤① |①---|
口④①口 |②-③-|
口②③口 |--④-|
口口口口 |--⑤-|
76
③口口③ |----|
口口口口 |①---|
③①②③ |②---|
口②①口 |③---|
77
口口口口 |----|
口①②口 |--①-|
口③④口 |②-③-|
口⑤口口 |④-⑤-|
78
口口口口 |①-②-|
④口口③ |③-④-|
②口口① |----|
口口口口 |----|
79
④口口② |①-②-|
口⑥⑥口 |--③-|
③口口① |④---|
口⑤⑤口 |⑤-⑥-|
80
④口口④ |--①-|
口口口口 |②-③-|
口①②③ |④---|
口口口口 |----|
81
⑤④①⑤ |①---|
④口口① |②-③-|
口②③口 |--④-|
口口口口 |--⑤-|
82
口口口口 |----|
口口口① |①---|
②口口口 |②---|
口口口③ |③---|
83
④⑤⑤① |①---|
口④①口 |②-③-|
口②③口 |--④-|
口口口口 |--⑤-|
84
④口口④ |----|
口口口口 |①---|
口②③口 |②-③-|
口①①口 |--④-|
85
口口口口 |----|
①口口① |----|
②口口② |①---|
口口口口 |②---|
86
②②②② |①---|
口口口口 |--②-|
口口口口 |----|
口①①口 |----|
87
口⑤口口 |①---|
口①④口 |②-③-|
口口口口 |--④-|
口②③口 |--⑤-|
88
③口③口 |--①-|
口③口③ |②---|
口①②口 |③---|
口口口口 |----|
89
口口⑤口 |①---|
口④①口 |②-③-|
口口口口 |--④-|
口②③口 |--⑤-|
90
口③口③ |--①-|
③口③口 |②---|
口①②口 |③---|
口口口口 |----|
91
口口①口 |①---|
口②口口 |----|
口口口口 |②---|
口口口口 |----|
92
②口口② |①---|
口口口口 |----|
口口①口 |②---|
口口口口 |----|
93
⑤④①⑤ |①---|
④口口① |②-③-|
口②③口 |--④-|
口口口口 |--⑤-|
94
口口口口 |----|
口口口① |①---|
②口口口 |②---|
口口口③ |③---|
95
④⑤⑤① |①---|
口④①口 |②-③-|
口②③口 |--④-|
口口口口 |--⑤-|
96
口口口口 |----|
口③④口 |①---|
②口口② |②---|
口①①口 |③-④-|
97
①②③口 |----|
口口口口 |①---|
口口口口 |②---|
口口口口 |③---|
98
口口口① |①---|
口④③② |②---|
口口口口 |③---|
口口口口 |④---|
99
口口口口 |①---|
①口口口 |②---|
②③④口 |③---|
口口口口 |④---|
100
口口口口 |①---|
口⑤口口 |②---|
口口口① |③---|
口④③② |④-⑤-|
101
⑤④口⑤ |①---|
④口①口 |②-③-|
口②③口 |--④-|
口口口口 |--⑤-|
102
口口口口 |----|
口口口① |①---|
②口口口 |②---|
口口口③ |③---|
103
④⑤⑤① |①---|
口④①口 |②-③-|
口②③口 |--④-|
口口口口 |--⑤-|
104
口口口口 |----|
口③④口 |①---|
②口口② |②---|
口①①口 |③-④-|
105
口③②① |----|
口口口口 |①---|
口口口口 |②---|
口口口口 |③---|
106
①口口口 |①---|
②③④口 |②---|
口口口口 |③---|
口口口口 |④---|
107
口口口口 |①---|
口口口口 |----|
口②②口 |②---|
口①①口 |----|
108
口口口口 |①---|
②①①② |----|
口口口口 |②---|
口口口口 |----|
109
口口口口 |①---|
口①②口 |----|
口口口口 |②---|
口口口口 |----|
110
口口口口 |①---|
口口口口 |----|
口①②口 |②---|
口口口口 |----|
111
口口口口 |①---|
口口口口 |----|
①口口② |②---|
口口口口 |----|
112
口口口口 |①---|
①口口② |----|
口口口口 |②---|
口口口口 |----|
113
①口口口 |①---|
口口口口 |----|
口口口口 |----|
口口口口 |----|

accuracy: 99.5%
最終更新:2023年06月04日 05:09