アットウィキロゴ
ミラクル・スイート・スイーツ・マジック!!
日向美ビタースイーツ♪

EXTREME

Level: 9.0
BPM: 88-206
Notes: 717

1
口口口口 |(206)----|
口口口口 |----|
口口口口 |----|
口口口口
2
口口口① |----|
口口口口 |----|
口口口口 |①---|
口口口口
3
口口口口 |①-②-|
口①②口 |③-④-|
口③④口 |⑤-⑥-|
口⑤⑥口
4
③口口口 |①---|
②口口口 |②---|
①口口口 |③---|
口口口口
5
口口口③ |①---|
口口口② |②---|
口口口① |③---|
口口口口
6
口③口口 |①---|
口②口口 |②---|
口①口口 |③---|
口口口口
7
口口③口 |①---|
口口②口 |②---|
口口①口 |③---|
口口口口
8
③口口口 |①---|
②口口口 |②---|
①口口口 |③---|
口口口口
9
口口口③ |①---|
口口口② |②---|
口口口① |③---|
口口口口
10
口③口口 |①---|
口②口口 |②---|
口①口口 |③---|
口口口口
11
口口③口 |①---|
口口②口 |②---|
口口①口 |③---|
口口口口
12
①①口口 |①---|
口口口口 |②-③-|
口②③口 |④-⑤-|
口④⑤口
13
口④⑤口 |①-②-|
口口口口 |③---|
③口口口 |④-⑤-|
①口口②
14
口口口口 |①---|
②①口③ |②-③-|
④口口⑤ |④-⑤-|
口口口口
15
口口④④ |①-②-|
口⑤口口 |③---|
口口口口 |④-⑤-|
①③口②
16
口口口口 |①---|
口口①口 |②-③-|
④②③⑤ |④-⑤-|
口口口口
17
③口口口 |①-②-|
①④⑤② |③---|
口口口口 |④-⑤-|
口口口口
18
口口口口 |(186)①---|
口口口口 |②---|
口①口③ |③---|
口②口口
19
口口口口 |(128)①---|
口②口口 |②---|
①口③口 |(88)③---|
口口口口
20
口口口口 |----|
口口口口 |----|
口口口口 |----|
口口口口 |----|
21
口③口① |(206)①---|
口口④口 |②-③-|
口⑤②口 |④-⑤-|
口⑥口口 |--⑥-|
22
④口③口 |①---|
口②口口 |②---|
口口口① |③---|
口口口口 |④---|
23
口口口口 |①---|
口口③② |②-③-|
④①①口 |----|
口口口口 |④---|
24
④④口口 |①---|
⑥①口⑥ |②---|
口③⑤口 |③-④-|
口②口口 |⑤-⑥-|
25
口口③② |①---|
口①①口 |②-③-|
口口口口 |--④-|
口④⑤口 |--⑤-|
26
口口口② |----|
口③④口 |①---|
口⑤口① |②-③-|
口口口口 |④-⑤-|
27
口②③口 |①-②-|
①口口④ |③-④-|
⑧口口⑤ |⑤-⑥-|
口⑦⑥口 |⑦-⑧-|
28
⑦口口① |----|
⑤⑥口② |----|
口口口③ |①②③④⑤---|
口口口④ |⑥-⑦-|
29
口①口口 |①---|
④⑤⑥口 |②-③-|
④⑤⑥口 |--④-|
口②③口 |⑤-⑥-|
30
口口①① |----|
口口口口 |①---|
口③口口 |②---|
口口②② |③---|
31
②口②口 |①---|
①③①口 |②-③-|
口⑥⑦口 |④-⑤-|
口④⑤口 |⑥-⑦-|
32
口④口⑥ |--①-|
③口⑤② |--②-|
①口口口 |③-④-|
口口口口 |⑤-⑥-|
33
④口④口 |①---|
口①口口 |②-③-|
口口③口 |--④-|
⑤②⑤口 |--⑤-|
34
口口口③ |--①-|
口口②口 |②-③-|
④⑥口① |--④-|
口口口⑤ |⑤-⑥-|
35
口②⑦口 |①-②-|
⑥口③① |③-④-|
⑧口口⑤ |⑤-⑥-|
口④口口 |⑦-⑧-|
36
①②口⑦ |--①-|
口③口⑥ |②-③-|
口口⑤口 |④-⑤-|
口口④口 |⑥-⑦-|
37
口口口口 |①-②-|
①⑤②口 |③-④-|
口③口④ |⑤---|
口口口口
38
口口口口 |①---|
口口口③ |②---|
口口①口 |--③-|
口②口口
39
口口口口 |①---|
②口①口 |②---|
口③④口 |③-④-|
口口口口
40
口口口口 |①---|
口口③② |----|
口口口① |②-③-|
口口口口
41
口口口口 |①---|
口①口口 |②---|
口口②口 |③---|
口口③口
42
口口口口 |①---|
口口口口 |②---|
口①口② |③---|
口③口口
43
口口口口 |①---|
口口口口 |----|
口口口口 |----|
口口口①
44
口口口口 |----|
口口口口 |----|
口口口口 |----|
口口口口
45
②口①口 |①---|
③口①口 |----|
口口口口 |②-③-|
口口①口
46
口口口③ |①---|
口口口口 |②---|
①口②口 |③---|
口口口口
47
口口②口 |①---|
③①口口 |②---|
口口口口 |③---|
口口口口
48
③口口口 |①---|
口④口口 |②---|
口②口口 |③-④-|
口口①口
49
口口①① |①-②-|
口口口口 |----|
口口②③ |③-④-|
口口④口
50
①①口口 |①-②-|
口口②口 |----|
口口口口 |----|
口口口口
51
②口①口 |①---|
口③口口 |②-③-|
口口④口 |④---|
口口口口
52
口口口② |①-②-|
口口口① |③-④-|
⑦口口⑧ |⑤-⑥-|
⑤③④⑥ |⑦-⑧-|
53
③④③口 |①-②-|
①②①口 |③-④-|
口⑤⑦口 |⑤-⑥-|
口⑥⑧口 |⑦-⑧-|
54
④口口③ |①-②-|
②口口① |③-④-|
⑥口口⑤ |⑤-⑥-|
⑧口口⑦ |⑦-⑧-|
55
口③④③ |①-②-|
口①②① |③-④-|
口⑦⑤口 |⑤-⑥-|
口⑧⑥口 |⑦-⑧-|
56
④口口③ |①-②-|
②口口① |③-④-|
⑥口口⑤ |⑤-⑥-|
⑧口口⑦ |⑦-⑧-|
57
③②①口 |①---|
口③②① |②---|
口口口口 |③---|
口口口口
58
口口口口 |①---|
口口口口 |②---|
①②③口 |③---|
口①②③
59
口①②③ |①-②-|
口口口口 |③---|
口口口④ |④---|
口口④口
60
口口口口 |①---|
口②③① |②---|
①③②口 |③---|
口口口口
61
①②④③ |①-②-|
②口口④ |--③-|
④口口② |④---|
③④②①
62
口③口口 |①-②-|
口①②口 |--③-|
口②①口 |----|
口口③口
63
②口①口 |①---|
①口口② |--②-|
②口口① |----|
口①口②
64
口②口① |①---|
②①②口 |--②-|
口②①② |----|
①口②口
65
①口口④ |①---|
口②口③ |②---|
⑤口口口 |③-④-|
口口口口 |--⑤-|
66
口口③口 |--①-|
②口口口 |--②-|
口口口① |----|
口口口口 |③---|
67
①①口⑤ |①---|
③③④口 |②-③-|
⑤⑤口② |④---|
口口①口 |⑤---|
68
⑤①①口 |①---|
口③口② |②-③-|
口口④口 |④---|
口口口⑤ |⑤---|
69
口口口⑤ |①---|
⑤⑤④口 |②-③-|
③③口② |④---|
①①①口 |⑤---|
70
口口①口 |①---|
口口口② |②-③-|
⑤③④口 |④---|
口①口⑤ |⑤---|
71
①口口③ |①---|
②口口④ |②---|
口口口口 |③---|
口口口口 |④---|
72
⑩⑪⑫口 |①②③-|
⑦⑧⑨口 |④⑤⑥-|
④⑤⑥口 |⑦⑧⑨-|
①②③口 |⑩⑪⑫-|
73
口⑤口⑤ |①---|
口⑤⑤⑤ |②-③-|
口③⑤④ |--④-|
①②口① |--⑤-|
74
③口口口 |----|
②口口口 |①-②-|
①④口口 |③---|
口口口口 |④---|
75
⑤①口① |①---|
口口口⑤ |②-③-|
⑤口③② |--④-|
口口④⑤ |--⑤-|
76
口③②① |----|
②③①口 |①---|
口①③② |②---|
①②③口 |③---|
77
①口⑤③ |①---|
口口⑥④ |②-③-|
口②⑦口 |④-⑤-|
口口口口 |⑥-⑦-|
78
①②⑦口 |①-②-|
②①⑥口 |③-④-|
③④口⑤ |--⑤-|
④③口口 |⑥-⑦-|
79
③口口① |①-②-|
③⑥⑥① |--③-|
口④②口 |④---|
⑤④②⑤ |⑤-⑥-|
80
③口口① |--①-|
④口口② |②-③-|
③⑤⑥① |④---|
口口口口 |⑤-⑥-|
81
⑤①口⑤ |①---|
口⑤⑤③ |②-③-|
④⑤⑤② |--④-|
口口口口 |--⑤-|
82
口口口口 |----|
②口口③ |①---|
口口口口 |②---|
②①①③ |③---|
83
⑤③④⑤ |①---|
⑤⑤⑤⑤ |②-③-|
②⑤⑤① |--④-|
口口口口 |--⑤-|
84
④③口口 |----|
④口口口 |①---|
②口口④ |②-③-|
口①①④ |--④-|
85
口口口口 |----|
口口口② |①---|
②③③口 |②---|
口①口口 |③---|
86
③③口口 |①---|
①口④口 |②-③-|
口口⑤① |--④-|
口②⑥口 |⑤-⑥-|
87
口口口③ |①---|
①口④口 |②-③-|
口②口③ |--④-|
①口⑤⑤ |--⑤-|
88
②③③④ |--①-|
①③口③ |②---|
③③口口 |③---|
③③口口 |④---|
89
③口口⑤ |①---|
②口口口 |②-③-|
口口①④ |--④-|
口口④① |--⑤-|
90
④③③口 |--①-|
口③①③ |②---|
③③②口 |③---|
③③口口 |④---|
91
口口口① |①-②-|
口⑦②口 |③-④-|
口口⑥③ |--⑤-|
口⑤④口 |⑥-⑦-|
92
③口口口 |--①-|
口口②口 |②---|
口①口口 |③---|
④口口口 |④---|
93
⑥口口⑥ |①-②-|
①②口① |③-④-|
③口④③ |⑤-⑥-|
⑧⑦⑤口 |⑦-⑧-|
94
口③⑤口 |①-②-|
②⑥④口 |③-④-|
口①⑦口 |⑤-⑥-|
口⑧口口 |⑦-⑧-|
95
⑥口⑤⑥ |①-②-|
③⑦④③ |③-④-|
①②口① |⑤-⑥-|
口⑧⑧口 |⑦-⑧-|
96
⑦⑧口口 |①-②-|
⑤口口③ |③-④-|
②⑥④① |⑤-⑥-|
⑤口口③ |⑦-⑧-|
97
⑥⑦⑧② |①---|
③④⑤口 |②---|
口口口① |③④⑤-|
口口口口 |⑥⑦⑧-|
98
口口口口 |①-②-|
⑥口口⑧ |③-④-|
⑤②④⑦ |⑤-⑥-|
口①③口 |⑦-⑧-|
99
②①③口 |①---|
口④口口 |②-③-|
口⑥⑤口 |④-⑤-|
口⑦⑦口 |⑥-⑦-|
100
③口口④ |--①-|
②⑦口⑤ |②-③-|
①口口⑥ |④-⑤-|
⑦口口口 |⑥-⑦-|
101
⑤口口⑤ |①---|
口口②口 |②-③-|
④①③口 |④-⑤-|
口⑦⑥② |⑥-⑦-|
102
口④⑤口 |①-②-|
①⑥③① |③-④-|
口②⑦口 |⑤-⑥-|
口⑧口口 |⑦-⑧-|
103
⑥口⑤⑥ |①-②-|
③⑦④③ |③-④-|
①②口① |⑤-⑥-|
口⑧⑧口 |⑦-⑧-|
104
口口⑧口 |①-②-|
⑤口⑥⑤ |③-④-|
①口⑦③ |⑤-⑥-|
②口口④ |⑦-⑧-|
105
⑦①口③ |①-②-|
⑧口⑦⑤ |③-④-|
⑨②口④ |⑤-⑥-|
⑩口⑨⑥ |⑦⑧⑨⑩|
106
⑦口①③ |①-②-|
口⑤口口 |③-④-|
⑧口②④ |⑤-⑥-|
口⑥口口 |⑦-⑧-|
107
口口口口 |①---|
口口口口 |----|
口②②② |②---|
口口①① |----|
108
口②②② |①---|
①①①① |----|
口口口口 |②---|
口口口口 |----|
109
①口口⑤ |①---|
口口③④ |②-③-|
口②口口 |--④-|
口口口口 |--⑤-|
110
口口口口 |----|
①口口口 |①---|
口口口② |②---|
③口口口 |③---|
111
⑤口口① |①---|
④③口口 |②-③-|
口口②口 |--④-|
口口口口 |--⑤-|
112
口口口口 |----|
口口口① |①---|
②口④口 |②---|
口③口口 |③-④-|
113
口口口口 |----|
口口口口 |----|
口口口口 |----|
口口口口 |----|

accuracy: 99.5%
最終更新:2023年06月04日 05:46