アットウィキロゴ
ナイト・オブ・ロンド
日向美ビタースイーツ♪

EXTREME

Level: 8
BPM: 169
Notes(hold): 455(19)

1
□□□□ |----|
□□□□ |----|
□②□□ |----|
①□□□ |--①②|
2
②③□④ |①-②-|
□□①□ |③-④-|
□□□□ |--⑤-|
□□⑤□

⑥□□□
□□□□
⑥□□□
□□□□ |--⑥-|
3
□□②□ |----|
□□□① |----|
□□②□ |①---|
□□□① |②---|
4
④□□④ |①---|
③①□② |②-③-|
□□□□ |--④-|
□①□□

□□□□
∨∨□□
||□□
⑤⑤□□ |--⑤-|
5
□⑤⑤□ |--①-|
□□□① |②-③-|
□□⑥② |④-⑤-|
44□③ |--⑥-|
6
⑥□□④ |①-②-|
③□□② |③-④-|
⑥①□□ |--⑤-|
□□⑤□ |--⑥-|
7
□□□④ |----|
□③□① |--①-|
□②□□ |--②-|
④□□① |③-④-|
8
①①□□ |--①-|
⑥⑦∨∨ |②---|
③④|| |③-④-|
⑤□②② |⑤-⑥⑦|
9
□□□□ |①---|
□□①□ |----|
□□□□ |----|
□□11 |----|
10
①□□□ |----|
|□□□ |----|
|□□□ |----|
∧□□□ |①-②-|

2□□□
□□□□
□□□□
□□□□
11
⑤□①④ |①---|
③□□② |②-③-|
③①□② |--④-|
□④⑤□ |--⑤-|
12
□□□④ |--①-|
□③③□ |②---|
□□□□ |③---|
②□□① |④---|
13
□①□□ |①---|
②④④③ |②-③-|
②□①③ |--④-|
□⑤⑤□ |--⑤-|
14
□□⑦① |--①-|
②⑥□□ |②-③-|
□□⑤□ |----|
□④□③ |④⑤⑥⑦|
15
①□□□ |①---|
□□□② |----|
□□③□ |--②-|
□□□□ |--③-|
16
□□□□ |--①-|
①□□□ |②-③-|
□②□④ |----|
③□□④ |④---|
17
□□□□ |①---|
②□□□ |----|
□□①□ |----|
□②①□ |--②-|
18
□□□∨ |--①-|
□□①| |②---|
□②□| |③-④-⑤-|
□□□③ |⑥---|

□□□□
□□□□
□□⑤□
□□⑥4
19
□□□④ |①---|
□③②□ |②-③-|
①□⑤□ |--④-|
□①□□ |--⑤-|
20
④□□⑤ |----|
□□③□ |--①-|
□②□□ |②-③-|
①□□□ |④-⑤-|
21
□①③□ |①---|
①⑤□③ |②-③-|
□□⑤□ |--④-|
④□②□ |--⑤-|
22
□□□① |----|
□②□□ |--①-|
□□②□ |----|
①□□□ |②---|
23
①□□② |①---|
□□②□ |--②-|
□③□□ |----|
③□□① |③---|
24
□□②□ |①---|
①□□□ |--②-|
□③③① |----|
□②□□ |③---|
25
①□□① |①---|
□③②□ |②-③-|
□□□□ |----|
□□④□ |--④-|
26
③⑦⑦① |①-②-|
⑤③①④ |③---|
□□⑥□ |④⑤⑥-|
□②□□ |⑦---|
27
□□□④ |①---|
□③②□ |②-③-|
①□⑤□ |--④-|
□①□□ |--⑤-|
28
④□□□ |----|
□□③□ |--①-|
□②□□ |②-③-|
①□□⑤ |④-⑤-|
29
⑤②①④ |①---|
②□□① |②-③-|
□□□③ |--④-|
④□③⑤ |--⑤-|
30
□□□□ |----|
□②①□ |--①-|
□①②□ |----|
□□□□ |②---|
31
□②□② |①---|
□□□① |--②-|
①□□□ |----|
③□③□ |③---|
32
□□②□ |①---|
①□□□ |--②-|
□③③① |----|
□②□□ |③---|
33
①□□① |①---|
□③②□ |②-③-|
□□□□ |----|
□□□□ |----|
34
□④②□ |①---|
④□□② |②---|
③□□① |③---|
□③①□ |④---|
35
①□□① |①---|
□□□④ |----|
□□③□ |--②-|
□□□② |③-④-|
36
①□□□ |----|
□①□□ |①---|
③□□② |②-③-|
③□□② |----|
37
④□□② |①---|
□③①□ |②---|
④□□② |③---|
□③①□ |④---|
38
□③②□ |①---|
①□□① |②-③-|
□□□□ |----|
□②③□ |----|
39
①⑤⑤□ |①--②|
□□□□ |--③-|
□②④③ |④---|
□□③④ |⑤---|
40
□□④③ |①--②|
②□③④ |--③-|
□□□□ |④---|
□①□□

□□□□
□□□□
□□□□
⑤⑥□□ |--⑤⑥|
41
④□□③ |①--②|
②□⑤□ |--③-|
□④□□ |④--⑤|
□□①⑤

□□□□
□□□□
□□□□
□⑥⑥□ |--⑥-|
42
□①①□ |①---|
③□□② |--②-|
□□□□ |③---|
④□□④ |④---|
43
①∨∨① |①-②③|
□||□ |----|
②||② |----|
□③③□ |----|
44
⑥⑤□⑥ |①②③④|
③□□④ |⑤-⑥-|
①⑧□② |----|
⑦11□ |--⑦⑧|
45
⑤③①□ |①-②-|
③□□① |③-④-|
④□□② |--⑤-|
□④②⑤

――⑥
□>⑥□
□⑥<□
⑥――< |--⑥-|
46
□②③1 |----|
②□1③ |①---|
③1□② |②---|
1③②□ |③---|
47
①□④④ |①---|
⑤②①□ |②-③-|
□□③⑤ |--④-|
④④□□ |--⑤-|
48
□□□□ |----|
□□□□ |----|
□③④□ |①-②-|
□①②□ |③-④-|
49
①④□□ |①---|
□□③② |②-③-|
④□□□ |----|
□□□□ |④---|
50
□□□□ |①--②|
□□□① |--③-|
□②□□ |----|
□④④③ |--④-|
51
⑤□⑤□ |①-②-|
①□□□ |③-④-|
□④④② |--⑤-|
③⑥□⑥ |--⑥-|
52
□□□□ |--①-|
□①②□ |②---|
②④□① |----|
③□□□ |--③④|
53
⑤③①□ |①-②-|
③□□① |③-④-|
④□□② |--⑤-|
□④②⑤

――⑥
□>⑥□
□⑥<□
⑥――< |--⑥-|
54
□②③1 |----|
②□1③ |①---|
③1□② |②---|
1③②□ |③---|
55
①□□④ |①---|
□②①□ |②-③-|
□□③□ |--④-|
□□④□

□□□□
□□⑤□
□□□⑤
□□□□ |--⑤-|
56
①□□□ |--①-|
□②□□ |--②-|
②③③□ |--③-|
□①□□

④□□④
□□□□
□□□□
□□□□ |--④-|
57
□□□⑤ |----|
②□④□ |--①-|
□③□⑤ |②-③-|
□①□□ |④-⑤-|
58
①□□□ |----|
□②□□ |①-②-|
□□□□ |----|
③④□□ |--③④|
59
②⑤⑥③ |①-②-|
⑤□□⑥ |③-④-|
□④④□ |--⑤-|
□□①□ |--⑥-|
60
□□□□ |----|
□④④③ |--①-|
②④④□ |--②-|
□①①□ |③-④-|
61
①①∨∨ |--①-|
□□|| |②---|
③④|| |--③-|
⑤□②② |④-⑤-|
62
①②⑨⑧ |--①-|
③④□□ |②-③-|
⑦⑤□□ |④⑤⑥-|
□⑥33 |⑦-⑧⑨|
63
④①□□ |①-②-|
⑥③□⑤ |③-④-|
⑥□②⑤ |--⑤-|
□□□□ |--⑥-|
64
①②□③ |----|
⑤□□⑤ |--①-|
□□□□ |②-③-|
□④□□ |④-⑤-|
65
□□∨□ |--①-|
□□|□ |②---|
□①|□ |----|
□□②□ |----|
66
□□□□ |----|
□□□□ |----|
□□□□ |----|
□□1□ |--①-|
67
□①①□ |----|
□①□① |①---|
①①□□ |----|
①①□□ |----|
最終更新:2021年09月09日 12:01