アットウィキロゴ
Drizzly Venom
日向美ビタースイーツ♪

EXTREME

Level: 9.6
BPM: 168
Notes(hold): 613(61)

1
BPM=147
□□□□ |----|
□□□□ |----|
□□□□ |----|
□□□□ |----|
2
□□□① |①---|
□∨□② |②---|
□①□③ |③---|
□□□④ |④---|
3
∨□①□ |①---|
①②□□ |②---|
□1□□
□□□□

□□□□
3□□④
□□③□ |③---|
③<□□ |④---|
4
①□□□ |①---|
□>①□
□□□□
1□□□

□□□□
□②□□ |②---|
□□③□ |③---|
□□□④ |④---|
5
□□□□ |①---|
□□1□ |②---|
①②∨□
□□①□

□□□□
□□□□
□□③④ |③---|
□□□□ |④---|
6
①②③④ |①---|
□∨□□ |②---|
□①□□ |③---|
□□1□ |④---|
7
□□□□ |①---|
□②①□ |----|
②1□① |②---|
□□□□ |----|
8
□③□③ |①---|
□|②| |②---|
□∧①∧ |③---|
□□□□

□4□4
□□□□
□□□□
□□□□ |④---|
9
□∨□∨ |①---|
□|□| |----|
□|□| |----|
□①□①

□□□□
□□□□
□□□□
□2□2 |②---|
10
BPM=168
□⑫⑥□ |①②③④|
⑤⑧□⑦ |⑤-⑥-|
③⑩④⑨ |⑦⑧⑨⑩|
①□②⑪ |⑪-⑫-|
11
□□□① |①-②-|
③□②⑧ |③④⑤⑥|
④⑨⑨□ |⑦-⑧-|
⑤⑥⑦□ |⑨---|
12
①⑥②① |①②③④|
③⑧④⑦ |⑤-⑥-|
⑤⑩□⑨ |⑦⑧⑨⑩|
□□□□

□□□□
⑫□□□
□□□□
□□□⑪ |⑪-⑫-|
13
③□⑥① |①-②-|
□⑦②⑧ |③④⑤⑥|
⑤□④□ |⑦⑧⑨⑩|
□⑨□⑩

□□□⑪
□□□□
□⑪□□
□□□□ |⑪---|
14
④④□□ |①-②-|
①⑤③□ |③-④-|
⑦⑧⑨② |⑤-⑥-|
①⑥①□ |⑦⑧⑨-|
15
⑦⑥⑤□ |①-②-|
②□①□ |③-④-|
□⑩⑨⑧ |⑤⑥⑦-|
④□③□ |⑧⑨⑩-|
16
□□④④ |①-②-|
□③⑤① |③-④-|
②⑨⑧⑦ |⑤-⑥-|
□①⑥① |⑦⑧⑨-|
17
□⑨⑫□ |①-②-|
⑤①⑥② |③-④-|
□⑪⑩□ |⑤⑥⑦⑧|
⑦③⑧④ |⑨⑩⑪⑫|
18
∨④□② |①---|
|□□□ |②---|
①□□③ |③---|
□□□□ |④---|
19
□□□② |①---|
□□□□ |②---|
2①□□ |③---|
□③―<

□□□□
□□④□
□⑤⑥□
□4□□ |④-⑤⑥|
20
③□②□ |①---|
□□□□ |②---|
④□□① |③---|
□□□∧ |④---|
21
□□□□ |①---|
①<②□ |②---|
□□□1
□□□□

□□>③
3□□□
□□□□ |③---|
□□□□

□④□4
□□□□
□⑥⑤□
□□□□ |④-⑤⑥|
22
□□□□ |①---|
∨②□□ |②-③-|
①□□□
□□□□

□④□□
□□□③
3□□| |----|
□□□∧ |④---|
23
□□④③ |①---|
⑥⑤①2 |②---|
□②⑧⑦ |③④⑤⑥|
⑩⑨□□ |⑦⑧⑨⑩|
24
□②⑤□ |①-②-|
□⑥③① |③-④-|
□④⑦| |⑤-⑥-|
□⑧⑤∧ |⑦-⑧-|
25
□□□□ |①---|
①□□□ |----|
|□□□
∧□□□

□□□□
3②②3
□③③□ |②-③-|
□□□□ |----|
26
①②②① |①---|
□□□③ |②---|
①□□① |③-④-|
□□□④

⑤□□□
□□⑤□
□⑤□□
□□□□ |--⑤-|
27
□□①□ |--①-|
②□□□ |--②-|
①③③② |----|
□①②□ |③---|
28
①□③④ |①-②-|
③□□③ |--③-|
②□□④ |--④-|
□④□□

⑤□□□
□□⑤□
□⑤□□
□□□□ |--⑤-|
29
□①□□ |----|
①□③② |①---|
①③□② |②---|
□□②□ |③---|
30
①①⑤④ |①-②-|
②②⑦⑥ |--③-|
∨□□□ |④-⑤-|
③③<□ |⑥-⑦-|
31
②□□③ |①---|
②□□③ |②---|
④⑤⑥① |③-④-|
22□□ |⑤-⑥-|
32
□□□□ |①---|
□□□□
□□□①
□□□□

④②④③
□②□③ |②-③-|
□□□∧ |----|
□□□∧ |④---|
34
□□□1 |----|
□②③1 |①---|
①□①□ |②-③-|
□□□□ |----|
35
①②②① |①---|
③□□□ |②---|
①□□① |③-④-|
④□□□

□□□⑤
□□□□
□⑤⑤□
□□□□ |--⑤-|
36
①①□□ |--①-|
②□①③ |--②-|
②□④□ |--③-|
□□□□ |④---|
37
④①③□ |①-②-|
④□□③ |--③-|
③②□④ |--④-|
□□□□

□□□□
□⑤□□
□⑤□□
□□⑤□ |--⑤-|
38
②□□□ |----|
□③①□ |①---|
□□②③ |②---|
①□□□ |③---|
39
□□②① |①---|
③④⑤⑥ |②---|
□□□□ |③-④-|
①――< |⑤-⑥-|
40
①□③② |--①-|
□④□□ |--②-|
①□⑤② |--③-|
2□□□ |④-⑤-|
41
□④□∨ |①---|
□□③② |--②-|
④□□② |--③-|
□①□∧ |④---|
42
①②□② |----|
□□□1 |①---|
□①□1 |②-③-|
□③□③ |----|
43
―⑨□ |①②③④|
①⑤②⑥ |⑤⑥⑦⑧|
―⑨□ |⑨---|
③⑦④⑧ |----|
44
②□□□ |①---|
□①―< |----|
②□□□ |②---|
□□□□

□□3□
□3□□
□□3□
□□□□ |③---|
45
□⑤□⑥ |①②③④|
①□②□ |⑤⑥⑦⑧|
□⑦□⑧
③□④□

―⑨□
□□□□
―⑨□ |⑨---|
□□□□ |----|
46
□□□□ |①---|
①□□□ |----|
|□□□
∧□□□

□□3□
2②□□
□|3□ |②---|
□∧□□ |③---|
47
②<>② |①---|
□1①□ |----|
□□|□ |②---|
□□∧□ |----|
48
1□③1 |----|
□②1□ |----|
①□□□ |①--②|
□□□□ |--③-|
49
□□□□ |①---|
□□□□ |②---|
④③<< |③---|
②①<< |④---|
50
①②□ |①---|
①∧□ |----|
□□□□ |②---|
□□□□ |----|
51
□11② |①---|
③1□① |②-③-|
11□□ |④---|
11④□

⑤□□□
□□□⑥
□□□□
□□□□ |⑤-⑥-|
52
□③②□ |①---|
□④④□ |②-③-|
③□□② |④---|
⑤①□⑤ |⑤---|
53
□□□□ |①---|
①□□① |----|
□□□□
□□□□

②□□②
|□□|
|□□| |②---|
∧□□∧ |----|
54
□②①□ |①---|
□③③□ |②---|
□□□□ |③---|
□□□□ |----|
55
1①①1 |①---|
②□□⑤ |②-③-|
⑥□□③ |④---|
□④□□ |⑤-⑥-|
56
□②②□ |①---|
⑤③③⑤ |②-③-|
□④④□ |④---|
□□①□ |⑤---|
57
①□□□ |①---|
□□②□ |②---|
③□□□ |③---|
□□④< |④---|
58
□□□□ |①---|
□①④< |②---|
③□>② |③---|
□□□□ |④---|
59
②□□⑤ |①---|
⑥□1③ |②-③-|
□①□1 |④---|
□④1□ |⑤-⑥-|
60
□②③□ |①---|
□④④□ |②-③-|
②□□③ |④---|
⑤□①⑤ |⑤---|
61
□□□□ |①---|
①□□① |----|
□□□□
□□□□

②□□②
|□□|
|□□| |②---|
∧□□∧ |----|
62
2②①2 |①---|
□□□□ |②---|
⑥⑤④③ |③-④-|
□□□□ |⑤-⑥-|
63
□□①□ |①---|
②③④① |--②-|
□□□□ |--③-|
②③④□ |--④-|
64
①□□② |①---|
□⑥⑤□ |②---|
⑥④③⑤ |③-④-|
④□□③ |⑤-⑥-|
65
②④③① |①-②-|
□□□□ |--③-|
□④③□ |--④-|
□□□□

⑤□□□
□□□⑤
□□□⑤
□□□□ |--⑤-|
66
□③②① |----|
①□□□ |①---|
①□□□ |②---|
□②③□ |③---|
67
③□□∨ |①-②-|
□④①② |③-④-|
⑤□①② |⑤---|
□□□∧

□⑥□□
⑦□□7
□□□7
□□□□ |⑥-⑦-|
68
⑧□□① |①-②-|
□⑦②□ |③-④-|
□③⑥□ |⑤-⑥-|
④□□⑤ |⑦-⑧-|
69
□⑤□□ |①---|
①□④① |②-③-|
□③□□ |④-⑤-|
□□②□

□□□□
⑦□□⑥
⑦□□⑥
□□□□ |⑥-⑦-|
70
③□□③ |①--②|
□⑤□④ |--③-|
□□□□ |--④⑤|
②②①①

□□□□
□□□□
□⑦□⑥
□⑨□⑧ |⑥⑦⑧⑨|
71
□□⑥□ |①②③④|
⑤⑦□□ |⑤-⑥-|
③□④□ |⑦-⑧-|
①□②⑧

□⑨□□
□□⑩□
□⑪□□
□□⑫□ |⑨⑩⑪⑫|
72
∨④□② |①---|
|□□□ |②---|
①□□③ |③---|
□□□□ |④---|
73
□□□② |①---|
□□□□ |②---|
2①□□ |③---|
□③―<

□□□□
□□④□
□⑤⑥□
□4□□ |④-⑤⑥|
74
③□②□ |①---|
□□□□ |②---|
④□□① |③---|
□□□∧ |④---|
75
□□□□ |①---|
①<②□ |②---|
□□□1
□□□□

□□>③
3□□□
□□□□ |③---|
□□□□

□④□4
□□□□
□⑥⑤□
□□□□ |④-⑤⑥|
76
□□□□ |①---|
∨②□□ |②-③-|
①□□□
□□□□

□④□□
□□□③
3□□| |----|
□□□∧ |④---|
77
□□④③ |①---|
⑥⑤①2 |②---|
□②⑧⑦ |③④⑤⑥|
⑩⑨□□ |⑦⑧⑨⑩|
78
□②⑤□ |①-②-|
□⑥③① |③-④-|
□④⑦| |⑤-⑥-|
□⑧⑤∧ |⑦-⑧-|
79
□□□□ |①---|
①□□□ |----|
|□□□
∧□□□

④②②④
2□□2
□③③□ |②-③-|
⑤□□⑤ |④-⑤-|
最終更新:2021年09月09日 11:48