アットウィキロゴ
銃弾は解を撃ち抜いて
日向美ビタースイーツ♪

BASIC

Level: 4
BPM: 171
Notes: 326

1
口口口口 |----|
口口口口 |----|
口口口口 |----|
口口口口 |----|
2
口口②① |①---|
口口口口 |----|
口口口口 |②---|
口口口口 |----|
3
口口口口 |①---|
②①口口 |----|
口口口口 |②---|
口口口口 |----|
4
①②口口 |①---|
口口口口 |----|
口口口口 |②---|
口口口口 |----|
5
口口口口 |①---|
口口①② |----|
口口口口 |②---|
口口口口 |----|
6
口口口口 |①---|
口口口口 |----|
口口②① |②---|
口口口口 |----|
7
口口口口 |①---|
口口口口 |----|
口口口口 |②---|
②①口口 |----|
8
口口口口 |①---|
口口口口 |----|
①②口口 |②---|
口口口口 |----|
9
口口口口 |①---|
口口口口 |----|
口口口口 |②---|
口口①② |----|
10
①②口口 |①---|
口口口口 |----|
口口口口 |②---|
口口口口 |----|
11
口口口口 |①---|
口口①② |----|
口口口口 |②---|
口口口口 |----|
12
口口②① |①---|
口口口口 |----|
口口口口 |②---|
口口口口 |----|
13
口口口口 |①---|
②①口口 |----|
口口口口 |②---|
口口口口 |----|
14
口口口口 |①---|
口口口口 |----|
①②口口 |②---|
口口口口 |----|
15
口口口口 |①---|
口口口口 |----|
口口口口 |②---|
口口①② |----|
16
口口口口 |①---|
口口口口 |----|
口口②① |②---|
口口口口 |----|
17
口口口口 |①---|
口口口口 |----|
口口口口 |②---|
②①口口 |----|
18
口口口口 |----|
口口口口 |----|
口口①口 |----|
口口口口 |①---|
19
口口④口 |①---|
口③②口 |②---|
口①口口 |③---|
口口口口 |④---|
20
口口口口 |----|
口口口口 |----|
口口①口 |----|
口口口口 |①---|
21
口口④口 |①---|
口③②口 |②---|
口①口口 |③---|
口口口口 |④---|
22
口口口口 |----|
口口口口 |----|
口口①口 |----|
口口口口 |①---|
23
口口④口 |①---|
口③②口 |②---|
口①口口 |③---|
口口口口 |④---|
24
①口口① |①---|
②口口② |--②-|
③口口③ |----|
口口口口 |③---|
25
口口口口 |--①-|
口口口口 |----|
口③②口 |②---|
①口口① |③---|
26
口口口口 |----|
口口口口 |----|
口①口口 |----|
口口口口 |①---|
27
口④口口 |①---|
口②③口 |②---|
口口①口 |③---|
口口口口 |④---|
28
口口口口 |----|
口口口口 |----|
口①口口 |----|
口口口口 |①---|
29
口④口口 |①---|
口②③口 |②---|
口口①口 |③---|
口口口口 |④---|
30
口口口口 |----|
口口口口 |----|
口①口口 |----|
口口口口 |①---|
31
口④口口 |①---|
口②③口 |②---|
口口①口 |③---|
口口口口 |④---|
32
①口口① |①---|
②口口② |--②-|
③口口③ |----|
口口口口 |③---|
33
口口口口 |----|
口口口口 |----|
②①口口 |①---|
口口口口 |②---|
34
②口口② |①---|
口③③口 |--②-|
口口口口 |----|
口①①口 |③---|
35
口口口口 |----|
口口口口 |①---|
口①②③ |②---|
口口口口 |③---|
36
②口口② |①---|
口口口口 |--②-|
口口口口 |----|
口①①口 |----|
37
口口口口 |----|
口口口口 |----|
②①口口 |①---|
口口口口 |②---|
38
②口口② |①---|
口③③口 |--②-|
口口口口 |----|
口①①口 |③---|
39
口口口口 |----|
口口口口 |①---|
口①②③ |②---|
口口口口 |③---|
40
②口口② |①---|
口口口口 |--②-|
口口口口 |----|
口①①口 |----|
41
口口口口 |----|
口口①② |----|
口口口口 |①---|
口口口口 |②---|
42
口口口口 |①---|
口口口口 |②---|
④③②① |③---|
口口口口 |④---|
43
口口口口 |----|
②①口口 |----|
口口口口 |①---|
口口口口 |②---|
44
口口口口 |①---|
口口口口 |②---|
①②③④ |③---|
口口口口 |④---|
45
口口口口 |----|
口口①② |----|
口口口口 |①---|
口口口口 |②---|
46
口口口口 |①---|
口口口口 |②---|
④③②① |③---|
口口口口 |④---|
47
口口口口 |----|
口①①口 |①---|
口②②口 |②---|
口③③口 |③---|
48
③③③③ |①---|
口②②口 |--②-|
①口口① |----|
口口口口 |③---|
49
口口口口 |----|
口口口口 |----|
口口口口 |----|
口口口口 |----|
50
②口口② |①---|
口口口口 |--②-|
口①①口
口口口口

口口口口
口口口口
口口③口 |----|
口口口口 |③---|
51
口口④口 |①---|
口③②口 |②---|
口①口口 |③---|
口口口口 |④---|
52
②口口② |①---|
口口口口 |--②-|
口①①口
口口口口

口口口口
口口口口
口口③口 |----|
口口口口 |③---|
53
口口④口 |①---|
口③②口 |②---|
口①口口 |③---|
口口口口 |④---|
54
②口口② |①---|
口口口口 |--②-|
口①①口
口口口口

口口口口
口口口口
口口③口 |----|
口口口口 |③---|
55
口口④口 |①---|
口③②口 |②---|
口①口口 |③---|
口口口口 |④---|
56
①口口① |①---|
②口口② |--②-|
③口口③ |----|
口口口口 |③---|
57
口口口口 |--①-|
口口口口 |----|
口口口口 |②---|
①③②① |③---|
58
②口口② |①---|
口口口口 |--②-|
口①①口
口口口口

口口口口
口口口口
口③口口 |----|
口口口口 |③---|
59
口④口口 |①---|
口②③口 |②---|
口口①口 |③---|
口口口口 |④---|
60
②口口② |①---|
口口口口 |--②-|
口①①口
口口口口

口口口口
口口口口
口③口口 |----|
口口口口 |③---|
61
口④口口 |①---|
口②③口 |②---|
口口①口 |③---|
口口口口 |④---|
62
②口口② |①---|
口口口口 |--②-|
口①①口
口口口口

口口口口
口口口口
口③口口 |----|
口口口口 |③---|
63
口④口口 |①---|
口②③口 |②---|
口口①口 |③---|
口口口口 |④---|
64
①口口① |①---|
②口口② |--②-|
③口口③ |----|
口口口口 |③---|
65
口口口口 |----|
口①①口 |----|
口①①口 |----|
口口口口 |--①-|
66
口口口口 |----|
口口口口 |----|
②口口① |①---|
口口口口 |②---|
67
口①①口 |①---|
口②②口 |②---|
口③③口 |③---|
口④④口 |④---|
68
①口口① |①---|
口口口口 |----|
③口口② |②---|
口口口口 |③---|
69
口①①口 |①---|
口②②口 |②---|
口③③口 |③---|
口④④口 |④---|
70
①口口① |①---|
②口口② |②---|
③口口③ |③---|
④口口④ |④---|
71
口口口口 |①---|
口①①口 |----|
口①①口
口口口口

口口口口
口口口口
口②②口 |----|
口口口口 |②---|
72
口口口口 |①---|
①③口① |----|
口口②口 |②---|
口口口口 |③---|
73
口口①口 |①---|
口口口口 |----|
口口口口 |②---|
口②②口 |----|
74
口口口口 |----|
口口口口 |----|
②口口① |①---|
口口口口 |②---|
75
口①①口 |①---|
口②②口 |②---|
口③③口 |③---|
口④④口 |④---|
76
①口口① |①---|
口口口口 |----|
③口口② |②---|
口口口口 |③---|
77
口①①口 |①---|
口②②口 |②---|
口③③口 |③---|
口④④口 |④---|
78
①口口① |①---|
②口口② |②---|
③口口③ |③---|
④口口④ |④---|
79
口口口口 |①---|
口①①口 |----|
口①①口
口口口口

口口口口
口口口口
口②②口 |----|
口口口口 |②---|
80
口口口口 |①---|
①③口① |----|
口口②口 |②---|
口口口口 |③---|
81
口口①口 |①---|
口口口口 |----|
口口口口 |②---|
口②②口 |----|
82
口口口口 |----|
口①口口 |----|
口口②口 |①---|
口口口口 |②---|
83
②口口② |①---|
口口口口 |--②-|
口口口口
口①口口

口口口口
口口口口
口③③口 |----|
口④④口 |③-④-|
84
口口口口 |----|
口①口口 |--①-|
口口口口 |----|
口口口口 |----|
85
①①①① |①---|
口口口口 |----|
口口口口 |----|
口口口口 |----|
86
②口口② |①---|
口口口口 |--②-|
口①①口 |----|
口口口口 |----|
87
口②②口 |①---|
口口口口 |--②-|
①口口① |----|
口口口口 |----|
88
口口口口 |①---|
口④③口 |②---|
口②①口 |③---|
口口口口 |④---|

accuracy: 99.5%
最終更新:2023年06月22日 05:27