アットウィキロゴ
銃弾は解を撃ち抜いて
日向美ビタースイーツ♪

ADVANCED

Level: 6
BPM: 171
Notes: 509

1
口口口口 |----|
口口口口 |----|
口口口口 |----|
口口口口 |----|
2
口⑤口④ |①--②|
口①口口 |--③-|
口口口② |--④-|
口③口口 |⑤---|
3
④口⑤口 |①--②|
口口①口 |--③-|
②口口口 |--④-|
口口③口 |⑤---|
4
口⑤口④ |①--②|
口①口口 |--③-|
口口口② |--④-|
口③口口 |⑤---|
5
④口⑤口 |①--②|
口口①口 |--③-|
②口口口 |--④-|
口口③口 |⑤---|
6
口⑤口④ |①--②|
口①口口 |--③-|
口口口② |--④-|
口③口口 |⑤---|
7
④口⑤口 |①--②|
口口①口 |--③-|
②口口口 |--④-|
口口③口 |⑤---|
8
口⑤口④ |①--②|
口①口口 |--③-|
口口口② |--④-|
口③口口 |⑤---|
9
④口⑤口 |①--②|
口口①口 |--③-|
②口口口 |--④-|
口口③口 |⑤---|
10
口⑥⑤④ |①--②|
口①口口 |--③-|
口口口② |--④-|
口③口口 |⑤-⑥-|
11
④⑤⑥口 |①--②|
口口①口 |--③-|
②口口口 |--④-|
口口③口 |⑤-⑥-|
12
口⑥⑤④ |①--②|
口①口口 |--③-|
口口口② |--④-|
口③口口 |⑤-⑥-|
13
④⑤⑥口 |①--②|
口口①口 |--③-|
②口口口 |--④-|
口口③口 |⑤-⑥-|
14
口⑥⑤④ |①--②|
口①口口 |--③-|
口口口② |--④-|
口③口口 |⑤-⑥-|
15
④⑤⑥口 |①--②|
口口①口 |--③-|
②口口口 |--④-|
口口③口 |⑤-⑥-|
16
口⑥⑤④ |①--②|
口①口口 |--③-|
口口口② |--④-|
口③口口 |⑤-⑥-|
17
④⑤⑥口 |①--②|
口口①口 |--③-|
②口口口 |--④-|
口口③口 |⑤-⑥-|
18
口口口口 |①---|
口口口口 |----|
口①①口
口口口口

口口口口
口口口口
口口②口 |----|
口口口口 |②---|
19
口口③口 |①---|
④口口② |②-③-|
⑤①口口 |--④-|
⑥口口口 |⑤-⑥-|
20
口口口口 |①---|
口口口口 |----|
口①①口
口口口口

口口口口
口口口口
口②口口 |----|
口口口口 |②---|
21
口③口⑥ |①---|
②口口⑤ |②-③-|
口口①④ |--④-|
口口口口 |⑤-⑥-|
22
口口口口 |①---|
口口口口 |----|
口①①口
口口口口

口口口口
口口口口
口口②口 |----|
口口口口 |②---|
23
⑥口③口 |①---|
⑤口口② |②-③-|
④①口口 |--④-|
口口口口 |⑤-⑥-|
24
口口口口 |①---|
③口口③ |--②-|
口①①口 |----|
口②②口 |③---|
25
口口口口 |--①-|
口口口口 |----|
口①口口 |②---|
口③②口 |③---|
26
口口口口 |①---|
口口口口 |----|
口①①口
口口口口

口口口口
口口口口
口口②口 |----|
口口口口 |②---|
27
口口③口 |①---|
④口口② |②-③-|
⑤①口口 |--④-|
⑥口口口 |⑤-⑥-|
28
口口口口 |①---|
口口口口 |----|
口①①口
口口口口

口口口口
口口口口
口②口口 |----|
口口口口 |②---|
29
口③口⑥ |①---|
②口口⑤ |②-③-|
口口①④ |--④-|
口口口口 |⑤-⑥-|
30
口口口口 |①---|
口口口口 |----|
口①①口
口口口口

口口口口
口口口口
口口②口 |----|
口口口口 |②---|
31
⑥口③口 |①---|
⑤口口② |②-③-|
④①口口 |--④-|
口口口口 |⑤-⑥-|
32
口口口口 |①---|
③口口③ |--②-|
口①①口 |----|
口②②口 |③---|
33
口口口口 |----|
②口口① |----|
②口口① |①---|
口口口口 |②---|
34
②口口② |①---|
口口口口 |--②-|
口③④口 |--③-|
口①①口 |④---|
35
口口口① |----|
口口①② |①---|
口口②③ |②---|
口口③口 |③---|
36
②②②② |①---|
口口口口 |--②-|
口口口口 |----|
①口口① |----|
37
口口口口 |①--②|
③①②④ |----|
③②①④ |③---|
口口口口 |④---|
38
③口口③ |①---|
口②②口 |②-③-|
口⑤④口 |--④-|
口①①口 |⑤---|
39
①口口口 |----|
②①口口 |①---|
③②口口 |②---|
口③口口 |③---|
40
②②②② |①---|
口口口口 |--②-|
口口口口 |----|
①口口① |----|
41
口口口口 |①--②|
④②①③ |----|
④①②③ |③---|
口口口口 |④---|
42
③⑤⑤③ |①---|
口口口口 |②-③-|
④②②④ |--④-|
口①①口 |⑤---|
43
口口口口 |----|
②口口① |----|
②口口① |①---|
口口口口 |②---|
44
③⑤⑤③ |①---|
口口口口 |②-③-|
④②②④ |--④-|
口①①口 |⑤---|
45
口口口口 |----|
②口口① |----|
②口口① |①---|
口口口口 |②---|
46
③⑤⑤③ |①---|
口口口口 |②-③-|
④②②④ |--④-|
口①①口 |⑤---|
47
口口口口 |----|
①口口① |①---|
②④④② |②---|
③口口③ |③-④-|
48
①①①① |①---|
②②②② |--②-|
③③③③ |----|
口口口口 |③---|
49
口口口口 |----|
口口口口 |----|
口口口口 |----|
口口口口 |----|
50
口口口口 |①--②|
口口①口 |--③-|
口②④口 |----|
口口③口 |④---|
51
口口③口 |①---|
④口口② |②-③-|
⑤①口口 |--④-|
⑥口口口 |⑤-⑥-|
52
口口口口 |①--②|
口①口口 |--③-|
口④②口 |----|
口③口口 |④---|
53
口③口⑥ |①---|
②口口⑤ |②-③-|
口口①④ |--④-|
口口口口 |⑤-⑥-|
54
口口口口 |①--②|
口口①口 |--③-|
口②④口 |----|
口口③口 |④---|
55
⑥口③口 |①---|
⑤口口② |②-③-|
④①口口 |--④-|
口口口口 |⑤-⑥-|
56
口口口口 |①---|
③口口③ |--②-|
口①①口 |----|
口②②口 |③---|
57
口口口口 |--①-|
口口口口 |----|
口①口口 |②---|
口③②口 |③---|
58
口口口口 |①--②|
口口①口 |--③-|
口②④口 |----|
口口③口 |④---|
59
口口③口 |①---|
④口口② |②-③-|
⑤①口口 |--④-|
⑥口口口 |⑤-⑥-|
60
口口口口 |①--②|
口①口口 |--③-|
口④②口 |----|
口③口口 |④---|
61
口③口⑥ |①---|
②口口⑤ |②-③-|
口口①④ |--④-|
口口口口 |⑤-⑥-|
62
口口口口 |①--②|
口口①口 |--③-|
口②④口 |----|
口口③口 |④---|
63
⑥口③口 |①---|
⑤口口② |②-③-|
④①口口 |--④-|
口口口口 |⑤-⑥-|
64
③③③③ |①---|
口口口口 |--②-|
口①①口 |----|
口②②口 |③---|
65
口口口口 |----|
口①①口 |----|
口①①口 |----|
口口口口 |--①-|
66
②口①口 |----|
口口口口 |----|
口口口口 |①---|
口①口② |②---|
67
口口口口 |①---|
口口②③ |②-③-|
①①①①
口口口口

口口口口
④⑤口口
口口⑥⑥ |--④-|
口口口口 |⑤-⑥-|
68
口③①① |①---|
口口口② |----|
②口口口 |②---|
口口③口 |③---|
69
③口口② |①---|
③口口② |②-③-|
口①①口
口口口口

口口口口
口口④口
口⑤⑥口 |--④-|
口口口口 |⑤-⑥-|
70
口②①口 |①---|
②口口① |②---|
④口口③ |③---|
口④③口 |④---|
71
口口口口 |①---|
口①①口 |----|
口①①口
口口口口

口口口口
②③口口
口口④④ |--②-|
口口口口 |③-④-|
72
口③①① |①---|
口口口② |----|
②口口口 |②---|
口口③口 |③---|
73
③口口② |①---|
③口口② |--②-|
口①①口 |③---|
口口口口 |----|
74
②口①口 |----|
口口口口 |----|
口口口口 |①---|
口①口② |②---|
75
口口口口 |①---|
口口②③ |②-③-|
①①①①
口口口口

口口口口
④⑤口口
口口⑥⑥ |--④-|
口口口口 |⑤-⑥-|
76
口③①① |①---|
口口口② |----|
②口口口 |②---|
口口③口 |③---|
77
③口口② |①---|
③口口② |②-③-|
口①①口
口口口口

口口口口
口口④口
口⑤⑥口 |--④-|
口口口口 |⑤-⑥-|
78
口②①口 |①---|
②口口① |②---|
④口口③ |③---|
口④③口 |④---|
79
口口口口 |①---|
口①①口 |----|
口①①口
口口口口

口口口口
②③口口
口口④④ |--②-|
口口口口 |③-④-|
80
口③①① |①---|
口口口② |----|
②口口口 |②---|
口口③口 |③---|
81
③口口② |①---|
③口口② |--②-|
口①①口 |③---|
口口口口 |----|
82
口②口口 |----|
口口口① |----|
①口口口 |①---|
口口②口 |②---|
83
口口口口 |①---|
④①①④ |②-③-|
⑤③②⑤ |--④-|
⑥口口⑥ |⑤-⑥-|
84
口①口口 |----|
①②①口 |--①-|
口①口口 |--②-|
口口口口 |----|
85
口口口口 |①---|
口口口口 |----|
口口口口 |----|
①①①① |----|
86
口⑤口④ |①--②|
口①口口 |--③-|
口口口② |--④-|
口③口口 |⑤---|
87
④口⑤口 |①--②|
口口①口 |--③-|
②口口口 |--④-|
口口③口 |⑤---|
88
口口口口 |①---|
②口口② |②---|
口①①口
口口口口

口口③口
口④口口
口口⑤口 |③-④-|
口⑥口口 |⑤-⑥-|

accuracy: 99.5%
最終更新:2023年06月22日 05:37