アットウィキロゴ
銃弾は解を撃ち抜いて
日向美ビタースイーツ♪

EXTREME

Level: 9.0
BPM: 171
Notes: 782

1
口口口口 |----|
口口口口 |----|
口口口口 |----|
口口口口 |----|
2
⑤③①口 |①--②|
③⑤口① |--③-|
口口口口 |--④-|
口④②口 |⑤---|
3
⑤③口口 |①--②|
③⑤口① |--③-|
口口口口 |--④-|
口④②口 |⑤---|
4
⑤③口口 |①--②|
③⑤口① |--③-|
口口口口 |--④-|
口④②口 |⑤---|
5
口③口口 |①--②|
③口口① |--③-|
⑧⑦⑥⑤ |--④-|
口④②口 |⑤⑥⑦⑧|
6
⑤③①口 |①--②|
③⑤口① |--③-|
口口口口 |--④-|
口④②口 |⑤---|
7
⑤③口口 |①--②|
③⑤口① |--③-|
口口口口 |--④-|
口④②口 |⑤---|
8
⑤③口口 |①--②|
③⑤口① |--③-|
口口口口 |--④-|
口④②口 |⑤---|
9
口③口口 |①--②|
③口口① |--③-|
⑧⑦⑥⑤ |--④-|
口④②口 |⑤⑥⑦⑧|
10
口③①口 |①--②|
③口口① |--③-|
口口口口
口口②口

⑤口⑦⑥
口⑤口口
口口口口 |--④-|
口④口口 |⑤-⑥⑦|
11
⑤③⑦⑥ |①--②|
③⑤口① |--③-|
口口口口 |--④-|
口④②口 |⑤-⑥⑦|
12
⑤③⑦⑥ |①--②|
③⑤口① |--③-|
口口口口 |--④-|
口④②口 |⑤-⑥⑦|
13
口③口口 |①--②|
③口口① |--③-|
⑧⑦⑥⑤ |--④-|
口④②口 |⑤⑥⑦⑧|
14
口③①口 |①--②|
③口口① |--③-|
口口口口
口口②口

⑤口⑦⑥
口⑤口口
口口口口 |--④-|
口④口口 |⑤-⑥⑦|
15
⑤③⑦⑥ |①--②|
③⑤口① |--③-|
口口口口 |--④-|
口④②口 |⑤-⑥⑦|
16
⑤③口口 |①--②|
③⑤口① |--③-|
口口口口 |--④-|
口④②口 |⑤---|
17
口口口口 |①②--|
④口口③ |③-④-|
口②①口
口口口口

口⑥⑤口
口⑧⑦口
口⑩⑨口 |⑤⑥⑦⑧|
口⑫⑪口 |⑨⑩⑪⑫|
18
③口口口 |①--②|
②口口口 |--③-|
①口④口 |----|
口口口口 |④---|
19
口④口① |①---|
口口②③ |②-③-|
口口⑤口 |--④-|
口⑥口口 |⑤-⑥-|
20
③口口口 |①--②|
②口口口 |--③-|
①口④口 |----|
口口口口 |④---|
21
口口⑥① |①---|
口口②③ |②-③-|
口口⑤口 |--④-|
口口④口 |⑤-⑥-|
22
③口口口 |①--②|
②口口口 |--③-|
①口④口 |----|
口口口口 |④---|
23
口口⑤① |①---|
口口②③ |②-③-|
口④口口 |--④-|
口口⑥口 |⑤-⑥-|
24
③口口① |①--②|
②口口③ |--③-|
①口口④ |----|
口口口口 |④---|
25
口口口口 |--①-|
口①口口 |----|
口口②口 |②---|
口口③口 |③---|
26
③口口口 |①--②|
②口口口 |--③-|
①口④口 |----|
口口口口 |④---|
27
口⑤口① |①--②|
口口③④ |③-④-|
口②⑥口 |--⑤-|
口⑦口口 |⑥-⑦-|
28
③口口口 |①--②|
②口口口 |--③-|
①口④口 |----|
口口口口 |④---|
29
口口⑦① |①--②|
口口③④ |③-④-|
口②⑥口 |--⑤-|
口口⑤口 |⑥-⑦-|
30
③口口口 |①--②|
②口口口 |--③-|
①口④口 |----|
口口口口 |④---|
31
口口⑤① |①---|
口口②③ |②-③-|
口④口口 |--④-|
口口⑥口 |⑤-⑥-|
32
③口口① |①--②|
②口口③ |--③-|
①口口口
口口口口

口口口口
口⑤④口
⑤口口④ |----|
口口口口 |④-⑤-|
33
⑤③①⑤ |①②-③|
口口口口 |④-⑤-|
口②④口
口口口口

口⑬⑫口
⑪口口⑩
⑨口口⑧ |⑥⑦⑧⑨|
口⑦⑥口 |⑩⑪⑫⑬|
34
⑥口口② |①---|
⑦③⑥口 |②-③-|
口①①口 |④-⑤-|
口⑤④口 |⑥-⑦-|
35
口④③② |①-②③|
口⑧⑥口 |④-⑤-|
口①⑦⑤ |⑥-⑦-|
口⑥⑧口 |⑧---|
36
①⑫⑪② |①--②|
④⑩⑨③ |--③④|
口⑧⑦口 |⑤⑥⑦⑧|
②⑥⑤① |⑨⑩⑪⑫|
37
①⑫⑪② |①--②|
④⑩⑨③ |--③④|
口⑧⑦口 |⑤⑥⑦⑧|
②⑥⑤① |⑨⑩⑪⑫|
38
⑥口口② |①---|
⑦⑤⑥口 |②-③-|
①口口① |④-⑤-|
口③④口 |⑥-⑦-|
39
口④③② |①-②③|
口⑧⑥口 |④-⑤-|
口①⑦⑤ |⑥-⑦-|
口⑥⑧口 |⑧---|
40
①⑫⑪② |①--②|
④⑩⑨③ |--③④|
口⑧⑦口 |⑤⑥⑦⑧|
②⑥⑤① |⑨⑩⑪⑫|
41
①⑫⑪② |①--②|
④⑩⑨③ |--③④|
口⑧⑦口 |⑤⑥⑦⑧|
②⑥⑤① |⑨⑩⑪⑫|
42
③口口② |①---|
⑤口口⑤ |②-③-|
①口口① |--④-|
②④④③ |⑤---|
43
⑤①⑥口 |①-②③|
⑦口④口 |④-⑤-|
口③②⑥ |⑥---|
口⑦口口 |⑦---|
44
③口口② |①---|
⑤①口⑤ |②-③-|
口口①口 |--④-|
②④④③ |⑤---|
45
⑤①⑥口 |①-②③|
⑦口④口 |④-⑤-|
口③②⑥ |⑥---|
口⑦口口 |⑦---|
46
③口口② |①---|
⑤①口⑤ |②-③-|
口口①口 |--④-|
②④④③ |⑤---|
47
口④②口 |①---|
口⑤③口 |②-③-|
④①①② |④-⑤-|
⑦⑥⑥⑦ |⑥-⑦-|
48
①口口① |①--②|
④口⑧④ |③-④-|
⑦③②⑦ |-⑤⑥-|
口⑥⑤口 |⑦--⑧|
49
②④③② |①-②-|
⑦①口⑦ |③④-⑤|
⑪⑩⑨⑧ |⑥-⑦-|
口⑥⑤口 |⑧⑨⑩⑪|
50
③⑤口① |①--②|
口口口口 |--③-|
口口口⑤ |--④-|
口④②口 |⑤---|
51
口口④① |①---|
口口②口 |②-③-|
口①⑤口 |--④-|
口③⑥③ |⑤-⑥-|
52
③⑤口口 |①--②|
②口口口 |--③-|
①口口⑤ |--④-|
口④口口 |⑤---|
53
口口⑥① |①---|
口口②口 |②-③-|
口①⑤口 |--④-|
口③④③ |⑤-⑥-|
54
③⑤口口 |①--②|
②口口口 |--③-|
①口口⑤ |--④-|
口④口口 |⑤---|
55
④口口① |①---|
口口②口 |②-③-|
口①口⑥ |--④-|
口③⑤③ |⑤-⑥-|
56
③口①① |①--②|
②口③③ |--③-|
①口⑤⑤ |--④-|
口④口口 |⑤---|
57
①口口① |--①-|
口口口口 |----|
口②②口 |②---|
口③③口 |③---|
58
③⑤口口 |①--②|
②口口口 |--③-|
①口口⑤ |--④-|
口④口口 |⑤---|
59
口口⑤① |①--②|
口②③口 |③-④-|
口①⑥口 |--⑤-|
口④⑦④ |⑥-⑦-|
60
③⑤口口 |①--②|
②口口口 |--③-|
①口口⑤ |--④-|
口④口口 |⑤---|
61
口口⑥① |①--②|
口②③⑥ |③-④-|
口①口⑤ |--⑤-|
口④⑤④ |--⑥-|
62
③⑤口口 |①--②|
②口口口 |--③-|
①口口⑤ |--④-|
口④口口 |⑤---|
63
④口口① |①---|
口口②口 |②-③-|
口①口⑥ |--④-|
口③⑤③ |⑤-⑥-|
64
③口口① |①--②|
②口口③ |--③-|
①口口口
口口口口

口口口口
口口口口
⑨⑧⑦⑥ |--④⑤|
口⑤④口 |⑥⑦⑧⑨|
65
口②③口 |①--②|
②①①③ |--③-|
口口口口
口口口口

口口口口
口⑨⑨口
口口④口 |-④⑤⑥|
⑤⑥⑦⑧ |⑦⑧⑨-|
66
①口口口 |----|
①口口口 |----|
口口口口 |①---|
口口②② |②---|
67
③①①③ |①---|
口①口① |②-③-|
①①②口
①①口口

口口口口
④口⑤口
口⑥口口 |--④-|
口口④口 |⑤-⑥-|
68
④①口② |①-②-|
口口⑤口 |③---|
③⑤口① |④---|
③③口④ |⑤---|
69
④①②⑤ |①---|
①口口② |②-③-|
③⑥口① |--④-|
口③①④ |⑤-⑥-|
70
口③①口 |①-②-|
⑤④②⑦ |③-④-|
③⑥⑧① |⑤-⑥-|
口⑤⑦口 |⑦-⑧-|
71
①③③① |①---|
口口⑤④ |②-③-|
①⑥口① |--④-|
②口口② |⑤-⑥-|
72
③口口口 |①---|
口口口口 |②-③-|
①口②口
口口①口

口④口口
④口口口
口口口⑤ |④---|
口口⑤口 |⑤---|
73
③③①② |①---|
口口口① |②-③-|
①口口口
②①口口

口口口口
口口口口
⑤口口⑤ |④---|
口口④④ |⑤---|
74
⑥口口⑤ |①②③④|
口②①口 |⑤-⑥-|
口④③口
口口口口

口⑧⑦口
口⑫⑪口
口⑭⑬口 |⑦⑧⑨⑩|
口⑩⑨口 |⑪⑫⑬⑭|
75
④口②② |①---|
①口⑤① |②-③-|
③⑥口口 |--④-|
③口口④ |⑤-⑥-|
76
④①口② |①-②-|
口⑥⑤口 |③---|
③⑤⑥① |④---|
③③口④ |⑤-⑥-|
77
④①②⑤ |①---|
①口口② |②-③-|
③⑥口① |--④-|
口③①④ |⑤-⑥-|
78
口③①口 |①-②-|
⑤④②⑦ |③-④-|
③⑥⑧① |⑤-⑥-|
口⑤⑦口 |⑦-⑧-|
79
①③③① |①---|
口口⑤④ |②-③-|
①⑥口① |--④-|
②口口② |⑤-⑥-|
80
③口口口 |①---|
口口口口 |②-③-|
①口②口
口口①口

口④口口
④口口口
口口口⑤ |④---|
口口⑤口 |⑤---|
81
③③①② |①---|
口口口① |②-③-|
①口口口
②①口口

口口口口
⑥口口⑥
口⑤⑤口 |④---|
口口④④ |⑤-⑥-|
82
③口口② |--①-|
口①①口 |②-③-|
⑩⑪⑤④ |④⑤⑥⑦|
⑥⑦⑨⑧ |⑧⑨⑩⑪|
83
②⑤⑧⑧ |①-②-|
③⑥①① |③-④-|
⑦口④④ |⑤-⑥-|
⑧口⑦⑦ |⑦-⑧-|
84
②①②口 |----|
①③①口 |--①-|
②①②口 |--②-|
口口口口 |③---|
85
⑤③口口 |①--②|
③⑤口口 |--③-|
口②口① |--④-|
口④①口 |⑤---|
86
⑤③口口 |①--②|
③⑤口① |--③-|
口口口口 |--④-|
口④②口 |⑤---|
87
⑤③口口 |①--②|
③⑤口① |--③-|
口口口口 |--④-|
口④②口 |⑤---|
88
口口口口 |①②--|
④口口③ |③-④-|
口②①口
口口口口

口⑥⑤口
口⑧⑦口
口⑩⑨口 |⑤⑥⑦⑧|
口⑫⑪口 |⑨⑩⑪⑫|

accuracy: 99.5%
最終更新:2023年06月22日 06:18