アットウィキロゴ
シノビシノノメ
東雲心菜

EXTREME

Level: 9.0
BPM: 174
Notes(hold): 762(24)

1
□□□□ |----|
□□□□ |----|
□□□□ |----|
□□□□ |----|
2
□□□□ |①---|
⑤②⑥□ |②-③-|
①③□① |④-⑤⑥|
⑦④⑧□ |-⑦⑧-|
3
③□④□ |①-②-|
□②□□ |③-④-|
①□□□ |⑤-⑥⑦|
□□□□ |----|

□□□□
⑥□⑦□
□□⑤□
□□□□
4
□①③② |①---|
⑤①⑥② |②-③-|
□①④② |④-⑤⑥|
⑦①⑧② |-⑦⑧-|
5
③□④□ |①-②-|
□②□□ |③-④-|
①□□□ |⑤-⑥⑦|
□□□□ |--⑧-|

□□□□
⑥□⑦□
⑧□⑤□
⑧□□□
6
□②③□ |①---|
⑤②⑥□ |②-③-|
□②④① |④-⑤⑥|
⑦②⑧① |-⑦⑧-|
7
□□④③ |①-②-|
⑥②⑦③ |③-④-|
①□⑤③ |⑤-⑥⑦|
⑧□⑨③ |-⑧⑨-|
8
②③④⑦ |①-②-|
⑤③⑧⑦ |③-④-|
①③⑥⑦ |⑤-⑥-|
□③□⑦ |⑦-⑧-|
9
③⑦④□ |①-②-|
③⑤⑧□ |③-④-|
③①⑥□ |⑤-⑥-|
③□②□ |⑦-⑧-|
10
⑧□□□ |①-②-|
□④⑥□ |③-④-|
⑦①□□ |⑤-⑥-|
③□②⑤ |⑦-⑧-|
11
□⑥④② |①-②-|
□□□⑧ |③-④-|
□⑤③① |⑤-⑥-|
□□⑦□ |⑦-⑧-|
12
□□④□ |①-②-|
②□□□ |③-④-|
□□□③ |⑤-⑥-|
□①□□ |⑦-⑧-|

□⑥□□
□□□⑦
⑤□□□
□□⑧□
13
□⑥④⑧ |①-②-|
②□□□ |③-④-|
⑤□⑦③ |⑤-⑥-|
□①□□ |⑦-⑧-|
14
②□□□ |①-②-|
□□□□ |----|
□①□□ |③---|
□□□□ |④---|

□④③④
□③□③
□④③④
□□□□
15
□□□□ |------①-|
①□□< |②----③-④|
③□□< |----⑤-⑥-|
⑤□□< |----|

□□□□
②□□□
④□□□
⑥□□□
16
②①②□ |①---|
①□①□ |②---|
②①②□ |------③-|
□□□□ |④----⑤-⑥|

□□□□
□□③
□□⑤
□□□□

□□□□
□□□④
□□□⑥
□□□□
17
□□□□ |----①-②-|
□□□□ |----|
□□□□ |③---|
□□① |④---|

□③③□
□③③□
④□□④
□④④②
18
③①①③ |----|
□□□□ |①-②-|
④②②④ |--③-|
□□□□ |④---|
19
④□③□ |①-②-|
□②□① |③-④-|
□□□□ |⑤-⑥-|
□□□□ |⑦---|

□□□□
□□⑦⑦
⑥□⑤□
□□□□
20
②④④② |①---|
□□□□ |②-③-|
③⑤⑤③ |--④-|
①□□① |⑤---|
21
□□③② |①---|
①④①② |②---|
⑤□□□ |③-④-|
□□□□ |⑤---|
22
④②②④ |①---|
□□□□ |②-③-|
⑤③③⑤ |--④-|
□①①□ |⑤---|
23
□②②□ |①---|
①□①② |②---|
□□□□ |③---|
□□□□ |④---|

□□□④
□□④□
③④□□
④③③□
24
①②⑤□ |①-②-|
④□□③ |③---|
□□□⑤ |④---|
□④③□ |⑤---|
25
□①□□ |①---|
⑤④③② |②-③-|
①□□□ |④-⑤-|
□⑥⑥□ |⑥---|
26
②①⑦① |①---|
④□③⑥ |②-③-|
□①⑤① |④-⑤-|
□□□□ |⑥-⑦-|
27
□②□② |①---|
④①④□ |②-③-|
□③□③ |--④-|
⑤□⑤□ |⑤---|
28
①⑦①② |①---|
⑥③□④ |②-③-|
□⑤□□ |④-⑤-|
□□□□ |⑥-⑦-|
29
②□□□ |①---|
□③①□ |②-③-|
□□□□ |④-⑤-|
□□□□ |⑥---|

□□□□
□□⑥□
□⑥④□
□□□⑤
30
②④②④ |①---|
①□□① |②-③-|
③⑤③⑤ |--④-|
□□□□ |⑤---|
31
□□□□ |①---|
□①①② |②-③-|
□□③□ |④---|
□□□□ |⑤---|

□□□□
⑤⑤□□
⑤□□□
□④□□
32
①②⑤□ |①-②-|
④□□③ |③---|
□□□⑤ |④---|
□④③□ |⑤---|
33
□①□② |①---|
□□③□ |②-③-|
①□□□ |④-⑤-|
□□□□ |⑥---|

□⑥⑥□
□□□□
□④□□
⑤□□□
34
□□③□ |①---|
□①□① |②---|
□□□□ |----|
□①□① |③---|

②□<□
②□<□
□□□□
□□□□
35
①>□② |①---|
①>□② |②---|
□□□□ |----|
□□□① |③---|

□③□□
□□□□
□□□□
□□□□
36
□□□① |①---|
②□<① |②---|
②□<□ |③-④-|
①□□□ |⑤---|

□③□□
□□④□
□□□⑤
□□□□
37
□□□① |①---|
①②□□ |②---|
①□□□ |③---|
□□②□ |④---|

④□□④
□□③□
□□□□
□③□□
38
∨∨□□ |----|
□□□□ |①---|
□□□① |②-③-|
①①□□ |④---|

□□□②
□□③□
□④□□
□□□□
39
③□①□ |①---|
□④□① |②---|
②□⑤□ |③-④-|
①①□□ |⑤---|

□□∨∨
□□□□
□□□□
□□②②
40
□①□③ |①---|
①□④□ |②---|
②⑤□② |③-④-|
□□①① |⑤---|
41
⑥□□⑥ |①---|
□⑥⑥□ |②-③-|
③⑤④② |④-⑤-|
①③②① |⑥---|
42
□□□□ |①---|
②⑦⑦② |②-③-|
⑥⑤④③ |④-⑤-|
①□□① |⑥-⑦-|
43
□①①② |①---|
□□□□ |②-③④|
□③④⑤ |⑤-⑥-|
□□□□ |⑦---|

□⑦⑦□
⑥□□□
□□□□
□□□□
44
□⑥□③ |①---|
□□④□ |②-③-|
②⑤□② |④-⑤-|
□①①□ |⑥---|
45
③⑤□④ |①-②-|
③⑤□④ |③---|
③⑤①④ |④---|
③⑤②④ |⑤---|
46
④⑤①□ |①-②-|
②⑥□⑥ |③-④-|
□□③□ |⑤---|
□□□□ |⑥---|
47
③④⑤⑥ |①---|
②□□□ |②-③-|
□□□□ |④-⑤-|
□①□① |⑥---|
48
□③□□ |①-②-|
□③□□ |③---|
②③□① |④-⑤-|
②③□① |⑥---|

□□□⑥
⑤□④⑥
□□□⑥
□□□⑥
49
③⑤①□ |①-②-|
□②⑤□ |③---|
□□□⑤ |④---|
□④④□ |⑤---|
50
①□①□ |----|
③①□□ |①---|
④□②□ |②---|
□②□② |③-④-|
51
□□□□ |①---|
□⑥②⑥ |②-③-|
□③□⑤ |④-⑤-|
①⑥④⑥ |⑥---|
52
①②□② |①---|
①□②□ |②---|
①□□□ |③---|
①□□□ |④-⑤-|

□□□□
④□□□
□⑤③□
□③□③
53
⑤③□□ |①-②-|
⑦□①□ |③-④-|
⑦□□② |⑤-⑥-|
④⑥□□ |⑦---|
54
②④②① |①---|
□②⑤① |②---|
□③□① |③---|
③□③① |④-⑤-|
55
⑧⑥④② |①---|
□□□□ |②③--④⑤--|
□□□□ |⑥⑦--⑧⑨--|
∧∧∧∧ |⑩---|

⑨⑦⑤③
□⑩⑩□
□□□①
□□□□
56
□□③□ |①---|
②□□② |②-③-|
□□□□ |④-⑤-|
□①①□ |⑥---|

□□□□
□④□□
□□⑤□
□⑥□□
57
□②④① |①-②-|
③□□④ |③-④-|
□③□□ |⑤---|
□□□□ |⑥---|

□□□⑥
□⑥□□
□□⑤⑥
□⑥□⑤
58
①□②□ |①---|
①□□② |②-③-|
①③□□ |④-⑤-|
①□□□ |⑥-⑦-|

□⑥□□
⑥⑤□□
□□⑦④
□□④□
59
③□③□ |①-②-|
□□②□ |③-④-|
①□□□ |⑤-⑥-|
④①④□ |⑦---|

□□□□
□⑤□□
□⑥□□
□⑦□□
60
□②□① |①---|
②□□① |②-③-|
□□③① |④-⑤-|
□□□① |⑥-⑦-|

□□⑥□
□□⑤⑥
④⑦□□
□④□□
61
□③□③ |①-②-|
□②□□ |③-④-|
□□□① |⑤-⑥-|
□④①④ |⑦---|

□□□□
□□⑤□
□□⑥□
□□⑦□
62
①□②□ |①---|
①□□② |②-③-|
①③□□ |④-⑤-|
①□□□ |⑥-⑦-|

□⑥□□
⑥⑤□□
□□⑦④
□□④□
63
⑨⑦⑤③ |①-②-|
□□□□ |③④--⑤⑥--|
□□□□ |⑦⑧--⑨⑩--|
∧∧∧∧ |⑪---|

⑩⑧⑥④
□⑪⑪②
①□□□
□①□□
64
□□□□ |①---|
③⑤⑤③ |②-③-|
□②②□ |--④-|
④①①④ |⑤---|
65
②⑤⑤□ |①---|
③□□□ |②-③-|
④□□□ |④---|
□①①□ |⑤---|
66
③□□② |①---|
⑤①⑥① |②-③-|
□□□④ |④-⑤⑥|
⑦①⑧① |-⑦⑧-|
67
③□④□ |①-②-|
⑥②⑦□ |③-④-|
①□⑤□ |⑤-⑥⑦|
□□□□ |----|
68
□①③② |①---|
⑤①⑥② |②-③-|
□①④② |④-⑤⑥|
⑦①⑧② |-⑦⑧-|
69
③□④□ |①-②-|
□②□□ |③-④-|
①□□□ |⑤-⑥⑦|
□□□□ |--⑧-|

□□□□
⑥□⑦□
⑧□⑤□
⑧□□□
70
□□□② |①---|
⑤□⑥□ |②-③-|
□③□① |④-⑤⑥|
⑦④⑧① |-⑦⑧-|
71
③③□② |①-②-|
⑥□⑦□ |③-④-|
□④□① |⑤-⑥⑦|
⑧⑤⑨□ |-⑧⑨-|
72
②□□□ |①-②-|
□□□③ |③---|
①□③□ |④---|
□③□□ |⑤---|

□④④□
⑤⑤□□
⑤⑤□□
□□□□
73
□□②② |①---|
□□②② |②---|
□□□② |③---|
□①①□ |④---|

③③□□
□□□□
④④④□
④④④□
74
②□□□ |①---|
②③□① |②-③-|
□□□① |④-⑤-|
□□□□ |⑥-⑦-|

□④⑤⑥
□□□⑦
□□□□
□□□□
75
□⑤④⑧ |①-②-|
⑤□□□ |③-④-|
③⑦□① |⑤-⑥-|
⑦③⑥② |⑦-⑧-|
76
①③⑧□ |①-②-|
⑦①④□ |③-④-|
□⑦□⑤ |⑤-⑥-|
□⑥□② |⑦-⑧-|
77
⑥⑧□④ |①-②-|
⑧①□□ |③-④-|
①⑤③⑦ |⑤-⑥-|
⑤□②③ |⑦-⑧-|
78
□□②□ |①-②-|
□③③② |③-④-|
①④④□ |--⑤-|
□□□□ |⑥---|

⑤□□⑤
□□□□
⑥□□⑥
□□□□
79
□①①□ |①---|
④③②□ |②-③-|
⑤□□□ |④-⑤-|
⑥□□□ |⑥---|
80
□□①□ |①---|
□□①□ |----|
□①①□ |----|
□①①□ |----|
最終更新:2021年06月21日 06:00