Midnight City Warfare
sky_delta
ADVANCED
Level: 9.2
BPM: 180
Notes(
hold): 788(10)
 
1
口口口口 |----|
口口口口 |----|
口口口口 |----|
口口口口 |----|
2
口口口口 |----|
口口口口 |----|
口口口口 |----|
口口口口 |----|
3
③□□① |①---|
□□□□ |--②-|
□□□□ |----|
□②□□ |③---|
4
□□①□ |--①-|
②□□③ |----|
□④⑤□ |②-③-|
□⑥⑦□ |④⑤⑥⑦|
5
①□□□ |①---|
□③□□ |--②-|
□□□□ |----|
□□□② |③---|
6
□□□② |--①-|
□□□□ |----|
□□□□ |②---|
③□①□ |③---|
7
□□□⑤ |①-②-|
②④□⑧ |③-④-|
□□③⑥ |⑤-⑥-|
□①⑦□ |⑦-⑧-|
8
③□⑤□ |①-②-|
□⑧②□ |③-④-|
④①⑥□ |⑤-⑥-|
□⑦□□ |⑦-⑧-|
9
□②□① |①-②-|
⑧□③⑦ |③-④-|
□⑥□□ |⑤-⑥-|
④□⑤□ |⑦-⑧-|
10
③□①③ |--①-|
□④④□ |②---|
③□□③ |③---|
□②□□ |④---|
11
⑨①⑪⑩ |①-②③|
□□□⑤ |④-⑤-|
⑥⑦⑧□ |⑥⑦⑧-|
□④③② |⑨-⑩⑪|
12
□①□□ |①-②-|
③④⑤⑦ |③④⑤-|
□⑧⑨□ |⑥-⑦-|
⑥⑩⑪② |⑧⑨⑩⑪|
13
①④③② |①-②③|
⑥⑦⑧□ |④-⑤-|
□□⑪⑩ |⑥⑦⑧-|
⑨□□⑤ |⑨-⑩⑪|
14
③④⑤⑩ |①-②-|
□□□② |③④⑤-|
⑥①□□ |⑥-⑦⑧|
□⑨⑧⑦ |⑨-⑩-|
15
□③④□ |①-②-|
②⑥⑧□ |③-④-|
□⑤□□ |⑤-⑥-|
①□□⑦ |⑦-⑧-|
16
③⑤□④ |①-②-|
□□□② |③-④-|
□⑦⑧⑥ |⑤-⑥-|
①⑨⑩□ |⑦⑧⑨⑩|
17
□□⑥④ |①-②-|
①□⑤□ |③-④-|
□□□⑦ |⑤-⑥-|
③⑧□② |⑦-⑧-|
18
□③③□ |--①-|
②□□② |----|
□①①□ |②---|
□□□□ |③---|
19
□□① |①---|
⑤④□□ |②-③-|
□□□□ |--④-|
②③□□ |⑤---|
20
□③□③ |①-②-|
□□②□ |----|
□④①□ |③---|
□□⑤ |④-⑤-|
21
⑤④□□ |①---|
②①□□ |②-③-|
③□□□ |--④-|
□□□□ |⑤---|
22
□□⑦□ |①-②-|
□⑥□□ |--③④|
③④⑤□ |⑤-⑥-|
②①□③ |⑦-⑧-|
□□□□
□□□□
□>□⑧
□□□□
23
□□□□ |----|
□□□□ |①-②-|
□□□□ |--③-|
□①□□ |④---|
□□□□
□□④③
□□□②
②□□<
24
□□①② |①-②-|
□□□④ |--③-|
□⑤□□ |④---|
④□③□ |⑤---|
25
□①□④ |①---|
①②□□ |②-③-|
⑤□□③ |--④-|
□⑤③□ |⑤---|
26
□④②□ |①-②-|
□□⑤② |--③-|
□⑥□□ |④-⑤-|
①□⑦③ |⑥-⑦-|
27
□□□□ |①---|
□□□□ |----|
□□□□ |----|
①□□□ |----|
28
□□□□ |----|
□□①□ |----|
□②□□ |①-②-|
③□□□ |③---|
29
□①□□ |----|
□□□□ |①---|
□□□② |--②-|
□□□□ |----|
30
□□□□ |①---|
□①□□ |--②-|
□□□□ |----|
□③②□ |③---|
31
□□①① |①---|
□□□② |②---|
□□□③ |③---|
□□□④ |④---|
32
①①□□ |①---|
②□□□ |②---|
③③□□ |③---|
④□□□ |④---|
33
⑫⑪⑩⑨ |①-②-|
⑧⑦⑥⑤ |③-④-|
□④③□ |⑤⑥⑦⑧|
□②①□ |⑨⑩⑪⑫|
34
□□④□ |①---|
□③□④ |②---|
④③②① |③---|
□④□① |④---|
35
①③□① |①---|
□□□□ |②---|
⑤⑥⑦□ |③-④-|
②□④② |⑤⑥⑦-|
36
⑥□□□ |①②③④|
④③②① |⑤--⑥|
□□□□ |⑦⑧⑨-|
□□□⑤ |⑩-⑪-|
□⑦⑧⑨
□□□⑪
⑩□□⑪
⑩□□□
37
⑥□④□ |①---|
□□□□ |②-③-|
□③⑤□ |④--⑤|
□①①② |--⑥-|
38
□⑥⑥① |①-②-|
②⑤⑤□ |③-④-|
□⑤⑤③ |⑤---|
④⑥⑥□ |⑥---|
39
①□⑦⑥ |①---|
□□□□ |②③④⑤|
⑤④③② |⑥-⑦-|
⑧⑨⑩⑪ |⑧⑨⑩⑪|
40
⑨□□⑪ |①②③④|
①②③④ |⑤⑥⑦⑧|
⑤⑥⑦⑧ |⑨-⑩-|
⑩□□⑫ |⑪-⑫-|
41
□②③□ |①-②-|
②①①③ |③-④-|
④□□□ |⑤-⑥-|
□④□□ |⑦-⑧-|
⑥□□⑦
□⑧□□
□⑥⑦⑤
⑧□⑤□
42
④③③④ |①--②|
①□①□ |--③-|
③□□③ |----|
□②□② |④---|
43
□②□□ |①---|
□①①□ |②-③④|
□□④③ |⑤⑥⑦-|
□①①□ |⑧⑨⑩-|
□□□□
⑧⑨⑩□
⑥⑤□□
□□□⑦
44
④⑤⑥⑦ |①-②-|
⑪⑩⑨② |③-④⑤|
□⑧□□ |⑥⑦⑧-|
①□③□ |⑨⑩⑪-|
45
③□□⑧ |①-②-|
□□□② |③-④⑤|
⑦⑥⑤④ |⑥⑦⑧-|
⑨⑩⑪① |⑨⑩⑪-|
46
⑧②③⑧ |①-②-|
②①①③ |③-④-|
④④⑤⑤ |⑤-⑥-|
⑥⑥⑦⑦ |⑦-⑧-|
47
□①□□ |①---|
①□□② |--②-|
③□②□ |----|
□③□□ |③---|
48
□□②② |--①-|
□□□□ |----|
□□□□ |②---|
□□①① |----|
49
⑨⑩⑪⑫ |①-②-|
①□□② |③-④-|
③□□④ |⑤⑥⑦⑧|
⑤⑥⑦⑧ |⑨⑩⑪⑫|
50
②②□□ |①---|
□□□□ |----|
□①①□ |----|
□□②② |②---|
51
⑤⑤②② |①---|
③④④③ |②--③|
③①①□ |--④-|
②□④⑤ |-⑤--|
52
□□③② |①---|
□□□③ |②--③|
③②①① |--④-|
②①□□ |-⑤--|
□④□□
□④⑤□
□□□□
□⑤⑤④
53
①□③② |①---|
①□□□ |②--③|
③②③① |--④-|
②□□□ |-⑤--|
□④□□
⑤④□□
□□□⑤
□□⑤④
54
①⑥⑥② |①-②-|
□⑤⑤④ |③-④-|
□⑤⑤□ |⑤---|
③⑥⑥□ |⑥---|
55
①□□① |①---|
⑤□□② |②-③-|
⑥□□③ |④-⑤-|
⑦□□④ |⑥-⑦-|
56
⑦⑦⑦⑦ |①--②|
⑤②③⑥ |③-④-|
□⑦⑦□ |⑤-⑥-|
□④①□ |⑦---|
57
□□□□ |①---|
□□□□ |②③④⑤|
①□□□ |⑥⑦⑧⑨|
⑤④③② |⑩⑪⑫⑬|
□□□□
⑨⑧⑦⑥
⑬⑫⑪⑩
□□□□
58
③□⑤① |①-②③|
⑨⑨⑥□ |--④-|
⑨⑨⑦□ |⑤⑥⑦⑧|
④□⑧② |⑨---|
59
③□□□ |①---|
□□□① |--②-|
□□□□ |----|
□②□□ |③---|
60
□①□□ |--①-|
□□□□ |----|
□□□□ |----|
□□□□ |----|
61
□□□□ |①---|
□③□□ |--②-|
□□①□ |----|
②□□□ |③---|
62
③④⑤□ |①---|
□□□② |--②-|
□□□□ |--③-|
□①□□ |④-⑤-|
63
⑦□□⑧ |①-②-|
⑤□□⑥ |③-④-|
③□□④ |⑤-⑥-|
①□□② |⑦-⑧-|
64
□⑦⑧□ |①-②-|
□⑤⑥□ |③-④-|
□③④□ |⑤-⑥-|
□①②□ |⑦-⑧-|
65
⑦⑮⑯⑧ |①②③④|
⑤⑬⑭⑥ |⑤⑥⑦⑧|
③⑪⑫④ |⑨⑩⑪⑫|
①⑨⑩② |⑬⑭⑮⑯|
66
□③□② |①---|
③□□□ |--②-|
□□□③ |----|
①□③□ |③---|
67
⑥⑧□② |①---|
□③□□ |②-③④|
⑦□④□ |⑤-⑥-|
①⑤□① |⑦-⑧-|
68
⑪⑩⑨⑧ |①-②③|
□⑦②⑤ |④-⑤-|
□③⑥① |⑥-⑦-|
□□④① |⑧⑨⑩⑪|
69
⑨□□□ |①-②-|
③⑦④□ |③-④⑤|
⑧⑤□① |⑥-⑦-|
□②⑥① |⑧-⑨-|
70
□①□① |①-②③|
②□□□ |④-⑤-|
□□③□ |⑥-⑦-|
④□□⑤ |⑧⑨⑩⑪|
□□□□
⑪⑩⑨⑧
□□□⑥
□⑦□□
71
⑦①⑥① |①-②-|
□⑨□□ |③-④⑤|
③⑤②□ |⑥-⑦-|
□□④⑧ |⑧-⑨-|
72
□①□① |①--②|
②□②□ |--③-|
□□□□ |--④-|
③□③□ |⑤⑥⑦⑧|
⑤⑥⑦⑧
□□□□
□④□④
□□□□
73
□⑤□□ |①--②|
□③⑥④ |--③-|
①⑦②⑧ |④-⑤⑥|
③①④② |⑦-⑧-|
74
①□②□ |①-②③|
①③□□ |④-⑤-|
⑤□④□ |⑥-⑦⑧|
⑤□□□ |⑨⑩⑪⑫|
⑪⑦⑫⑥
□□⑧⑥
□⑨□□
□□⑩□
75
□□⑧⑤ |①-②-|
①□□< |③-④-|
□⑥③④ |⑤-⑥-|
□□⑦② |⑦-⑧-|
76
□□□□ |①-②-|
⑦□⑦① |③-④-|
□⑤②③ |⑤-⑥-|
□④⑥□ |⑦-⑧-|
□□□∨
□□□□
□□□□
□□□⑧
77
④①□□ |①-②-|
□□□□ |③-④-|
□□□□ |⑤-⑥-|
②③□□ |⑦-⑧-|
□⑧□□
□⑥□□
⑦⑤□□
□□□□
78
⑦□□□ |①-②-|
①□⑥□ |③-④-|
□⑤□□ |⑤-⑥-|
②③④③ |⑦-⑧-|
□□□□
□□□□
⑧□<□
□□□□
79
□□①□ |----|
□□□□ |①-②-|
①□□□ |----|
②□□< |----|
80
④□□③ |----|
□②□□ |--①-|
□□⑤① |②-③-|
①□□□ |④-⑤-|
81
□⑥⑤□ |①-②-|
②⑧⑦□ |③-④-|
④⑩⑨③ |⑤⑥⑦⑧|
□⑫⑪① |⑨⑩⑪⑫|
82
②⑤④① |①-②-|
②⑦⑥① |--③-|
⑤□□④ |④-⑤-|
③⑦⑥□ |⑥-⑦-|
83
③④⑤⑥ |①---|
⑪⑩⑨⑧ |②-③④|
⑦□①□ |⑤⑥⑦-|
②□□② |⑧⑨⑩⑪|
84
⑥□□⑦ |①②③④|
□⑩⑩□ |⑤--⑥|
⑧②①⑨ |⑦⑧⑨-|
□④③⑤ |⑩---|
85
⑤①①□ |①---|
□□□□ |②-③-|
□①①⑥ |④--⑤|
②③④□ |--⑥-|
86
□□□① |①-②-|
④⑤⑤⑥ |③-④-|
②⑤⑤□ |⑤---|
□□□③ |⑥---|
87
②①①③ |①---|
□⑥□□ |②③④⑤|
□⑦⑦□ |⑥---|
④①①⑤ |⑦---|
88
□⑥⑥□ |--①-|
①②③① |--②③|
□⑥⑥□ |④-⑤-|
④④⑤⑤ |⑥---|
89
□⑪⑫□ |①-②-|
①⑨⑩② |③-④-|
③⑦⑧④ |⑤⑥⑦⑧|
□⑤⑥□ |⑨⑩⑪⑫|
90
□④□< |①--②|
①□□② |--③-|
③□□③ |----|
①□□② |④---⑤⑥⑦⑧|
□④□
□□□□
□□□□
□□□□
□⑤⑤□
□⑥⑥□
□⑦⑦□
□⑧⑧□
91
□□□□ |----|
□□□□ |----|
□□□□ |----|
□□□□ |----|
最終更新:2021年06月21日 05:49