アットウィキロゴ
キリステゴメン
東雲夏陽

EXTREME

Level: 9.3
BPM: 156
Notes(hold): 755(20)

1
□□□□ |----|
□□□□ |----|
□□□□ |----|
□□□□ |----|
2
□⑩①⑥ |①-②-|
⑩⑤⑦③ |③-④⑤|
□□□⑧ |-⑥⑦⑧|
②□⑨④ |⑨-⑩-|
3
□⑩①⑥ |①-②-|
⑩⑤⑦③ |③-④⑤|
□□□⑧ |-⑥⑦⑧|
②□⑨④ |⑨-⑩-|
4
□□④③ |--①-|
⑤□□□ |②-③④|
①②④③ |--⑤-|
□①⑥⑦ |⑥-⑦-|
5
①④□□ |①-②-|
□①□② |③-④⑤|
③□②□ |------⑥⑦|
□③□□ |⑧---|

□□⑤
□□□□
□□□□
□□□□

□□□⑥
□□⑥□
□⑦□□
⑧□□□
6
①□④⑤ |①---|
②③□□ |②③④⑤|
□□⑦⑥ |-⑥⑦⑧|
⑨⑧⑩① |⑨-⑩-|
7
□⑦④⑤ |①---|
②③⑨① |②③④⑤|
□□⑥□ |--⑥⑦|
□⑧□□ |-⑧-⑨|
8
□□④⑤ |①---|
②③□□ |②③④⑤|
□①⑦⑥ |-⑥⑦⑧|
⑨⑧⑩□ |⑨-⑩-|
9
①□②④ |①②-③|
③□②④ |④-⑤⑥|
⑤□□⑥ |-⑦⑧-|
□□□⑥ |⑨---|

□□□□
□⑨⑨□
□□⑧□
⑦□⑧□
10
□∨①□ |①---|
②□□< |②---|
□□③ |③---|
□④∧□ |④---|
11
□□①□ |①---|
①□①□ |----|
□①□① |----|
□①□□ |----|
12
②□□□ |①---|
□□□□ |②---|
②□□□ |③④⑤⑥|
①①①① |⑦---|

□□□□
□④③□
□⑥⑤□
□□⑦□
13
□⑨⑨⑤ |①②③④|
④⑥⑦③ |⑤-⑥-|
②□□① |⑦-⑧-|
□⑧□□ |⑨---|
14
□□⑦② |①---|
□⑥⑤□ |②---|
□④③② |③④⑤⑥|
□□①① |⑦---|
15
□⑧□□ |①②③④|
②□⑦① |⑤-⑥-|
④⑥□③ |⑦-⑧-|
□⑨⑨⑤ |⑨---|
16
②□□□ |①---|
□④③□ |②---|
②⑥⑤□ |③④⑤⑥|
①□⑦① |⑦---|
17
□⑨⑨⑤ |①②③④|
④⑥⑦③ |⑤-⑥-|
②□□① |⑦-⑧-|
□⑧□□ |⑨---|
18
□□⑦② |①---|
□⑥⑤□ |②---|
□④③② |③④⑤⑥|
□□①① |⑦---|
19
□⑧□□ |①②③④|
②□⑦① |⑤-⑥-|
④⑥□③ |⑦-⑧-|
□⑨⑨⑤ |⑨---|
20
④□②□ |①-②③|
③□⑥⑤ |--④-|
①③④□ |----|
□□⑥⑤ |⑤-⑥-|
21
①②□□ |-①-②|
□③□□ |--③-|
①②③□ |④---|
□□□□ |⑤-⑥⑦|

□□⑥④
⑦□□□
⑤⑦□□
④□□□
22
①③⑥⑦ |--①-|
□④⑦⑥ |--②-|
□⑤①□ |③-④-|
□□②□ |⑤⑥-⑦|
23
⑦③⑤□ |-①②-|
⑥□□□ |③-④-|
④⑥⑦□ |⑤⑥--|
□②①□ |⑦---|
24
□①④□ |--①-|
□②□④ |②-③④|
□③□□ |-⑤-⑥|
□□□□ |⑦-⑧-|

□⑧□⑤
□□⑤□
□□□□
□⑦⑥□
25
⑧□□④ |--①-|
⑧□□⑦ |②-③-|
①③②□ |④-⑤-|
□⑥⑤□ |⑥⑦-⑧|
26
⑦⑦□□ |--①-|
⑥③⑤⑤ |②-③-|
□□②④ |④-⑤-|
①□□□ |⑥-⑦-|
27
□□①□ |①-②-|
□□□□ |③④⑤⑥|
□□□□ |⑦--⑧|
□①□< |⑨⑩⑪-|

□□□③
⑨⑩⑪④
⑦②⑧⑤
□□□⑥
28
□①①③ |①-②-|
□□□□ |③④-⑤|
⑤②□④ |-⑥-⑦|
□①□□ |⑧-⑨-|

⑧□□□
□⑥□□
□□⑦□
□⑨⑨□
29
□□①□ |①--②|
③□□① |③---|
□□□② |④--⑤|
□□□□ |--⑥-|

④④□⑥
□□⑤⑤
④④□□
⑥□⑤⑤
30
⑤⑤③□ |①-②-|
③①□□ |③-④⑤|
□□①② |----|
□②④④ |--⑥-|

□□□□
□□□□
□□⑥□
□□□□
31
□④③③ |①--②|
④①⑤□ |③---|
①⑤□⑥ |④--⑤|
②②⑥□ |--⑥-|
32
③□⑤⑤ |①-②-|
□①□② |③-④⑤|
②□①□ |----|
④④□③ |--⑥-|

□□□□
□⑥□□
□□□□
□□□□
33
□□②② |①-②-|
□□□⑤ |③-④⑤|
④□①□ |--⑥-|
□□③③ |⑦-⑧-|

□□□□
□⑥□□
□□⑦□
□⑧□□
34
□>□② |①---|
□□□□ |②---|
□>□② |--③-|
①□①□ |④-⑤-|

□□□③
□□□□
□□□③
□⑤④□
35
①□①⑦ |①--②|
□④⑧③ |③-④-|
②⑥⑤□ |⑤-⑥-|
□□□□ |⑦-⑧-|
36
④④①□ |①--②|
□②□① |--③-|
③□②④ |④---|
□③⑤④ |--⑤-|
37
□□①□ |①--②|
③□□① |③---|
□□□② |④--⑤|
□□□□ |--⑥-|

④④□⑥
□□⑤⑤
④④□□
⑥□⑤⑤
38
⑤⑤③□ |①-②-|
③①⑥□ |③-④⑤|
□⑥①② |----|
□②④④ |--⑥-|
39
②③①□ |①---|
③□④① |②---|
①④□⑤ |③--④|
□①⑤② |--⑤-|
40
③□⑤⑤ |①-②-|
□①□② |③-④⑤|
②□①□ |----|
④④□③ |--⑥-|

□□□□
□□□□
□□⑥□
□□□□
41
①①□□ |①-②-|
⑥□④□ |③-④⑤|
□⑤⑦□ |--⑥-|
③⑧②□ |⑦-⑧-|
42
□>□② |①---|
□□□□ |②---|
□>□② |--③-|
①□①□ |④-⑤-|

□□□③
□□□□
⑤□□③
□□④□
43
⑧□⑧□ |①-②-|
④①②① |③-④-|
⑦⑤③⑤ |⑤-⑥-|
□□⑥□ |⑦-⑧-|
44
□∨□∨ |①---|
□□□□ |----|
□□□□ |----|
□①□① |----|
45
□□□□ |①---|
③①①② |----|
□□□□ |②---|
□①□① |③---|
46
□□□□ |①②③-|
□□□④ |④---|
□□③□ |⑤⑥⑦⑧|
□②①□ |⑨⑩⑪⑫|

□⑧⑦□
□⑥⑤□
□⑫⑪□
□⑩⑨□
47
②□□□ |①---|
①⑥④① |②---|
□□□□ |③④--|
□⑤③□ |⑤⑥--|
48
⑤④③② |①---|
①□□① |②③④⑤|
□□□□ |⑥⑦-⑧|
□□□□ |-⑨--|

□□□□
□⑦□⑨
□□⑥□
□□⑧□
49
□□□□ |①---|
①□⑥⑤ |----|
①□④③ |②-③④|
□②□□ |-⑤⑥-|
50
④□⑦□ |①②③④|
③⑥⑧□ |⑤⑥-⑦|
②⑨⑩□ |--⑧-|
①□⑤□ |⑨-⑩-|
51
①□□□ |①---|
□□□□ |②---|
□□□□ |③④-⑤|
□②□□ |-⑥-⑦|

□□□□
□⑤□□
□⑥④③
□⑦□□
52
□□□① |--①-|
□□②□ |②-③-|
□□□③ |④---|
□□④□ |----|
53
□□□□ |①---|
□①①□ |----|
□□□□ |----|
□□□□ |----|
54
□□□□ |----|
□□□□ |----|
□□□□ |----|
□□□□ |----|
55
□□①⑤ |①②③④|
④□□□ |⑤⑥⑦⑧|
⑥⑧⑦③ |⑨⑩⑪⑫|
□②□□ |⑬⑭⑮⑯|

⑫□□□
□⑯⑨⑬
□□□□
⑩⑭⑪⑮
56
□②□① |①②③④|
⑥□⑤□ |⑤⑥⑦⑧|
□④□③ |⑨⑩-⑪|
⑧□⑦□ |-⑫⑬-|

⑪□⑫⑪
□⑬□□
□□⑨□
□⑩□□
57
□⑤⑥□ |①-②-|
□□⑦③ |③-④⑤|
□⑧④□ |--⑥-|
□□②① |⑦-⑧-|
58
②□□□ |①---|
□□□□ |②---|
∧□□□ |--③-|
□①□□ |④-⑤-|

③□□□
□□□□
□□□□
□⑤④□
59
④□□□ |①--②|
□□□③ |③-④-|
②□①□ |⑤-⑥-|
□□□□ |⑦-⑧-|

□□□□
□⑧⑤□
□□⑦□
□□⑥□
60
□①□□ |①--②|
□□□□ |--③-|
□□□③ |④⑤⑥-|
□②□□ |⑦-⑧-|

□□□□
④□□□
⑤⑦⑦□
⑥⑧□□
61
□□①□ |①--②|
③□□① |③---|
□□□② |④--⑤|
□□□□ |--⑥-|

④④□⑥
□□⑤⑤
④④□□
⑥□⑤⑤
62
⑤⑤③□ |①-②-|
③①□□ |③-④⑤|
□□①② |--⑥⑦|
□②④④ |⑧⑨⑩⑪|

□□□⑥
□⑨⑩□
□⑪⑧□
⑦□□□
63
②③①□ |①---|
③□④① |②---|
①④□⑤ |③--④|
□①⑤② |--⑤-|
64
③□⑤⑤ |①-②-|
□①□② |③-④⑤|
②□①□ |-⑥⑦-|
④④□③ |⑧-⑨-|

□□□□
⑥□□⑨
□⑧⑧⑦
□□□□
65
①①□□ |①-②-|
⑥□④□ |③-④⑤|
□⑤⑦□ |--⑥-|
③⑧②□ |⑦-⑧-|
66
□>□② |①---|
□□□□ |②---|
□>□② |-③--|
①□①□ |④-⑤-|

④⑤□③
⑤□□□
□□□③
□□□□
67
□□①□ |①-②-|
□□□② |③-④-|
①□□③ |⑤---|
□②③④ |⑥-⑦-|

□⑥⑦□
⑥⑤⑤⑦
□⑤⑤□
□□□□
68
②⑤⑦① |①-②-|
⑥□③⑦ |③④-⑤|
□④□⑤ |----|
①□⑥② |⑥-⑦-|
69
①④□① |①-②-|
□⑧②□ |③-④-|
③□⑦④ |⑤-⑥-|
⑤③⑥⑤ |⑦-⑧-|
70
①⑤③① |①-②-|
③⑧①③ |③-④⑤|
⑥②⑦⑥ |⑥---|
⑦□④⑦ |⑦-⑧-|
71
①③④① |①-②-|
⑦□⑥④ |③-④-|
□②□③ |⑤-⑥-|
⑤⑧⑦⑤ |⑦-⑧-|
72
□□① |①---|
□□□□ |----|
□□① |----|
□□□□ |②---|

①□□<
□□□□
①□□<
□□□□

②□□②
□②②□
②□□②
□□□□
73
□⑩①⑥ |①-②-|
⑩⑤⑦③ |③-④⑤|
□□□⑧ |-⑥⑦⑧|
②□⑨④ |⑨-⑩-|
74
□⑩①⑥ |①-②-|
⑩⑤⑦③ |③-④⑤|
□□□⑧ |-⑥⑦⑧|
②□⑨④ |⑨-⑩-|
75
□□④③ |--①-|
⑤□□□ |②-③④|
①②④③ |--⑤-|
□①⑥⑦ |⑥-⑦-|
76
①④□□ |①-②-|
□①□② |③-④⑤|
③□②□ |------⑥⑦|
□③□□ |⑧---|

□□⑤
□□□□
□□□□
□□□□

□□□⑥
□□⑥□
□⑦□□
⑧□□□
最終更新:2021年06月21日 05:58