アットウィキロゴ
君氏危うくも近うよれ
A応P

BASIC

Level: 3
BPM: 162
Notes: 162

1
口口口口 |----|
口口口口 |----|
口口口口 |----|
口口口口 |----|
2
口口口口 |①---|
口①①口 |----|
口①①口 |----|
口口口口 |----|
3
口口口口 |①---|
口①①口 |----|
口①①口 |----|
口口口口 |----|
4
口口口口 |①---|
②①①② |----|
②①①② |②---|
口口口口 |----|
5
口③口口 |①---|
口②口口 |②---|
口①口口 |③---|
口口口口 |----|
6
口口口① |①---|
口口口口 |----|
口口口口 |----|
口口口口 |----|
7
口口口口 |①---|
口口①口 |----|
口口口口 |----|
口口口口 |----|
8
口口口口 |①---|
口口口口 |----|
口①口口 |----|
口口口口 |----|
9
口口口口 |①---|
口口口口 |----|
口口口口 |----|
①口口口 |----|
10
口口口口 |①---|
口口口口 |----|
口口口口 |----|
口口①口 |----|
11
口口口口 |①---|
口口口口 |----|
口口①口 |----|
口口口口 |----|
12
口口口口 |①---|
口口口口 |----|
口①①口 |----|
口口口口 |----|
13
口口口口 |①---|
口①①口 |----|
口口口口 |----|
口口口口 |----|
14
口口口口 |①---|
口口口口 |----|
①②口口 |②---|
口口口口 |----|
15
口口口口 |①---|
口口口口 |----|
口口②① |②---|
口口口口 |----|
16
口口口口 |①---|
口口口口 |----|
口②口口 |②---|
口①口口 |----|
17
口口口口 |①---|
口①口口 |----|
口口口口 |----|
口口口口 |----|
18
口口口口 |①---|
口口口口 |----|
口口②① |②---|
口口口口 |----|
19
口口口口 |①---|
口口口口 |----|
①②口口 |②---|
口口口口 |----|
20
口口口口 |①---|
口口口口 |----|
口口②口 |②---|
口口①口 |----|
21
口口口口 |①---|
口口①口 |----|
口口口口 |----|
口口口口 |----|
22
口口口口 |①---|
①①②② |----|
口口口口 |②---|
口口口口 |----|
23
口口口口 |①---|
口口口口 |----|
口①②口 |②---|
口口口口 |----|
24
口口口口 |①---|
口口口口 |----|
口②口口 |②---|
口①口口 |----|
25
口口口口 |①---|
口①口口 |----|
口口口口 |----|
口口口口 |----|
26
口口口口 |①---|
②②①① |----|
口口口口 |②---|
口口口口 |----|
27
口口口口 |①---|
口口口口 |----|
口②①口 |②---|
口口口口 |----|
28
口口口口 |①---|
口口口口 |----|
口口②口 |②---|
口口①口 |----|
29
口口口口 |①---|
口口①口 |----|
口口口口 |----|
口口口口 |----|
30
口口口口 |①---|
口口口口 |----|
①口口口 |----|
口口口口 |----|
31
口口口口 |①---|
口口口口 |----|
口口口① |----|
口口口口 |----|
32
口口口口 |①---|
口口口口 |----|
口②②口 |②---|
口①①口 |----|
33
口②②口 |①---|
口①①口 |----|
口口口口 |②---|
口口口口 |----|
34
①②口① |①---|
口口口口 |----|
口口口口 |②---|
口口口口 |----|
35
口口口口 |①---|
口口①口 |----|
口②口口 |②---|
口口口口 |----|
36
口口口口 |①---|
口口口口 |----|
口口口口 |----|
口口①口 |----|
37
口口口口 |----|
口口口口 |----|
①口口① |----|
口口口口 |①---|
38
口口口口 |①---|
①②③① |----|
口口口口 |②---|
口口口口 |③---|
39
口口口口 |①---|
口口口口 |②---|
口①②口 |③---|
口③口④ |④---|
40
口口口口 |①---|
③口口② |②---|
④口口① |③---|
口口口口 |④---|
41
口口口口 |①---|
口③③④ |②---|
口②②口 |③---|
口①①口 |④---|
42
口口口① |①---|
口②③口 |----|
口口口口 |②---|
口口口口 |③---|
43
口口口口 |①---|
口口口口 |②---|
口①②口 |③---|
口③口口 |----|
44
口口口口 |①---|
口口①① |----|
②②口口 |②---|
口口口口 |----|
45
口口口口 |①---|
口口口口 |----|
②口口② |----|
口口①① |②---|
46
口口口口 |①---|
①②③① |----|
口口口口 |②---|
口口口口 |③---|
47
口口口口 |①---|
口口口口 |②---|
口①②口 |③---|
口③口④ |④---|
48
口口口口 |①---|
③口口② |②---|
④口口① |③---|
口口口口 |④---|
49
口口口口 |①---|
口③③④ |②---|
口②②口 |③---|
口①①口 |④---|
50
口②口① |①---|
口口③口 |----|
口口口口 |②---|
口口口口 |③---|
51
口口口口 |①---|
口口口口 |②---|
口①口口 |③---|
口③②口 |----|
52
口口口口 |①---|
口口①① |----|
②②口口 |②---|
口口口口 |----|
53
口口口口 |①---|
口口口口 |----|
口口口口 |----|
口口①① |----|
54
口口口口 |①---|
口口口口 |----|
口口②口 |②---|
口①口口 |----|
55
口口②口 |①---|
口①口口 |----|
口口口口 |②---|
口口口口 |----|
56
①口口口 |①---|
口口口② |----|
口口口口 |②---|
口口口口 |----|
57
口口口口 |①---|
口口口口 |----|
①口口口 |②---|
口口口② |----|
58
口口口口 |①---|
口口口口 |----|
口口②口 |②---|
口①口口 |----|
59
口口②口 |①---|
口①口口 |----|
口口口口 |②---|
口口口口 |----|
60
口口口口 |①---|
①口口① |----|
口口口口 |----|
口口口口 |----|
61
③口口口 |①---|
口②②口 |--②-|
口口口口 |----|
口①①口 |③---|

accuracy: 99.5%
最終更新:2023年06月01日 02:27