アットウィキロゴ
君氏危うくも近うよれ
A応P

ADVANCED

Level: 6
BPM: 162
Notes: 381

1
口口口口 |----|
口口口口 |----|
口口口口 |----|
口口口口 |----|
2
口口口口 |①---|
口①①口 |----|
口①①口
口口口口

口口口口
口②口口
口②口口 |----|
口口口口 |--②-|
3
口口口口 |①---|
口②①口 |----|
口②①口 |----|
口口口口 |--②-|
4
口④口口 |①---|
②口①③ |--②-|
②口①③ |③---|
口口口口 |--④-|
5
口口口口 |----|
口口口口 |①---|
口②①口 |②---|
口口口口 |----|
6
①①口口 |①---|
口口②② |----|
口口口口 |----|
口口口口 |--②-|
7
口口口口 |----|
口口口口 |----|
口口口口 |①---|
口口①① |----|
8
②口口② |①---|
①①口口 |----|
口口口口 |----|
口口口口 |--②-|
9
口口口口 |--①-|
口②②口 |--②-|
口④③口 |--③-|
①口口① |④---|
10
口口①① |①---|
②②口口 |----|
口口口口 |----|
口口口口 |--②-|
11
口口口口 |----|
口口口口 |----|
口口口口 |①---|
①①口口 |----|
12
口口口口 |①---|
口①①口 |----|
口①①口 |----|
口口口口 |----|
13
②口④① |①--②|
口口③口 |--③-|
口③口口 |----|
①口口② |④---|
14
口①口口 |--①-|
⑤口②⑥ |②-③-|
口③口口 |④---|
口口④口 |⑤-⑥-|
15
口口口口 |--①-|
口①口口 |②-③-|
⑤口②④ |--④-|
口③口⑥ |⑤-⑥-|
16
口口⑥⑥ |①---|
口⑤②口 |②-③-|
口③④口 |④-⑤-|
①口口口 |--⑥-|
17
口口口口 |----|
口口口口 |----|
口口口口 |----|
口口口口 |----|
18
口③口口 |--①-|
口口口口 |②---|
①④⑤② |③---|
口口口口 |④-⑤-|
19
口口④口 |--①-|
①⑤口口 |②-③-|
口口⑥② |--④-|
③口口口 |⑤-⑥-|
20
口⑦口口 |①---|
③口⑥② |②-③-|
口⑤口口 |④-⑤-|
口①④口 |⑥-⑦-|
21
口口口口 |----|
口口口口 |----|
口口口口 |----|
口口口口 |----|
22
口口口② |①-②-|
口口口口 |③---|
口口③口
口①①口

④④口口
口⑤口口
口口口口 |④---|
口口⑥⑥ |⑤-⑥-|
23
④口口口 |--①-|
口⑥①口 |②-③-|
口②口口 |--④-|
③口口⑤ |⑤-⑥-|
24
口口①④ |①---|
⑥⑥②① |②-③-|
①③口口 |④-⑤-|
口①⑤口 |--⑥-|
25
②口口① |----|
口口口口 |----|
口口口口 |--①-|
口口口口 |②---|
26
口①口口 |--①-|
④③③口 |②---|
口③③⑤ |③---|
口口②口 |④-⑤-|
27
④口口口 |--①-|
口③口⑤ |②-③-|
⑥口②口 |--④-|
口①口口 |⑤-⑥-|
28
④⑤⑥⑦ |①---|
口②口口 |②-③-|
口口③口 |④-⑤-|
口口口① |⑥-⑦-|
29
口口口口 |----|
口口口口 |----|
口口口口 |----|
口口口口 |----|
30
口口口口 |①-②-|
口③①口 |③-④-|
口④②⑤ |⑤-⑥-|
⑦口口⑥ |⑦---|
31
①①⑥口 |①-②-|
口⑦②② |③-④-|
③③口口 |⑤---|
⑤⑤④④ |⑥-⑦-|
32
③口口① |①---|
③④④① |②---|
口②②口 |③---|
口口口口 |④---|
33
口口口口 |①---|
口④④口 |②---|
③②②① |③---|
③口口① |④---|
34
①口口① |①---|
口③③口 |----|
口口口口 |②---|
口②②口 |③---|
35
①口口① |①---|
口口口口 |②---|
口③④口 |③---|
②④③② |④---|
36
口口口口 |①---|
①②②① |--②-|
口口口口
口口口口

口口口口
④口口④
口③③口 |③---|
口口口口 |--④-|
37
①①②② |--①-|
口⑤⑤口 |②-③-|
口⑤⑤口 |④---|
③③④④ |⑤---|
38
①①①① |①---|
口口口口 |--②-|
口口口口
②口口口

⑥⑥口口
口口口③
口④口口 |③-④-|
口口口⑤ |⑤-⑥-|
39
⑤⑤①① |①---|
②口口③ |②-③-|
②口口③ |④---|
口④④口 |⑤---|
40
④④①① |①---|
口口口口 |②---|
口口口口 |③---|
③③②② |④---|
41
口口口口 |①-②-|
⑧④⑤⑤ |③-④-|
②⑦③③ |⑤-⑥-|
⑥口①① |⑦-⑧-|
42
口①⑥口 |①---|
口⑤口口 |--②-|
口口④口 |③-④-|
口③口② |⑤-⑥-|
43
①①口口 |①---|
口口②口 |②-③-|
口③口口 |④---|
⑤口④口 |--⑤-|
44
②②①① |①---|
⑥口口③ |②---|
④口口⑤ |③-④-|
口口口口 |⑤-⑥-|
45
口口口口 |----|
口①①口 |----|
口①①口 |----|
口口口口 |①---|
46
①①①① |①---|
口口口口 |--②-|
口口口口
②口口口

⑥⑥口口
口口口③
口④口口 |③-④-|
口口口⑤ |⑤-⑥-|
47
⑤⑤①① |①---|
②口口③ |②-③-|
②口口③ |④---|
口④④口 |⑤---|
48
④④①① |①---|
口口口口 |②---|
口口口口 |③---|
③③②② |④---|
49
口口口口 |①-②-|
⑧④⑤⑤ |③-④-|
②⑦③③ |⑤-⑥-|
⑥口①① |⑦-⑧-|
50
口①⑥口 |①---|
口⑤口口 |--②-|
口口④口 |③-④-|
口③口② |⑤-⑥-|
51
①①口口 |①---|
口口②口 |②-③-|
口③口口 |④---|
⑤口④口 |--⑤-|
52
②②①① |①---|
⑥口口③ |②---|
④口口⑤ |③-④-|
口口口口 |⑤-⑥-|
53
口口口口 |----|
口口口口 |----|
口口口口 |----|
口口口口 |----|
54
口口口口 |①-②-|
⑦口口⑥ |③-④-|
口②①口 |⑤---|
口④③⑤ |⑥-⑦-|
55
口口口口 |--①-|
口口①口 |②-③-|
口②口口 |----|
口口③口 |----|
56
口口口口 |①-②-|
⑥口口⑦ |③-④-|
口①②口 |⑤---|
⑤③④口 |⑥-⑦-|
57
口口口口 |--①-|
口①④口 |②-③-|
口⑤②口 |--④-|
口③⑥口 |⑤-⑥-|
58
①⑥⑦② |①-②-|
③口口④ |③-④-|
⑤口口口 |⑤---|
口口口口 |⑥-⑦-|
59
③口口③ |--①-|
口口口口 |②-③-|
口口②口 |--④-|
④①口④ |----|
60
口口口口 |①--②|
口①③口 |--③-|
⑤口口⑥ |--④-|
口④②口 |⑤-⑥-|
61
③③③③ |①--②|
②③③② |--③-|
口①①口 |----|
口口口④ |④---|

accuracy: 99.5%
最終更新:2023年06月01日 02:38