アットウィキロゴ
君氏危うくも近うよれ
A応P

EXTREME

Level: 8
BPM: 162
Notes: 581

1
口口口口 |----|
口口口口 |----|
口口口口 |----|
口口口口 |----|
2
口口口口 |①--②|
③口口② |--③-|
口口口口
①①①①

口口口口
口⑤口口
口口④口 |--④-|
⑥⑥⑥⑥ |⑤-⑥-|
3
①①①① |①--②|
③⑤口② |--③-|
口口④口 |--④-|
⑥⑥⑥⑥ |⑤-⑥-|
4
①①①① |①--②|
口口口② |--③-|
口③口③
口口口口

⑦⑦⑦⑦
④⑤④口
口口口口 |④-⑤-|
⑥⑥⑥⑥ |⑥-⑦-|
5
⑧⑧口口 |--①②|
⑧⑤⑥⑦ |③④⑤⑥|
①②③④ |⑦---|
口口口口 |⑧---|
6
口口①① |①---|
口口口② |②---|
⑤⑤口③ |③---|
口口口④ |④-⑤-|
7
②口口口 |①---|
①口口口 |②---|
口口口口 |③---|
④③③口 |④---|
8
①口口① |①---|
口②口口 |②---|
口口口口
口口口口

口口口⑤
口口③口
口口④口 |③---|
⑤口口口 |④-⑤-|
9
①口口口 |--①-|
③口②④ |--②-|
③②口④ |--③-|
口口口① |④---|
10
①①②③ |①---|
口口口④ |②---|
⑤⑤口口 |③---|
口口口口 |④-⑤-|
11
②口口口 |①---|
①口口口 |②---|
口口口口 |③---|
④③③口 |④---|
12
口口口⑥ |①--②|
③⑤口② |--③-|
口口④口 |--④-|
口口口① |⑤-⑥-|
13
③②②④ |①--②|
②口③② |--③-|
①③口① |----|
口①①③ |④---|
14
口口②口 |①-②-|
口⑥口③ |③-④-|
口口⑦④ |⑤---|
①口口⑤ |⑥-⑦-|
15
口③口④ |--①-|
③口②口 |②-③-|
①口口② |--④-|
⑤①口⑥ |⑤-⑥-|
16
①口⑥⑥ |①---|
口⑤口② |②-③-|
③口口口 |④-⑤-|
口口④口 |--⑥-|
17
口口口口 |①-②-|
⑤口⑦口 |③-④-|
口⑧口⑥ |--⑤-|
①②③④ |⑥-⑦⑧|
18
口口①① |①-②-|
口②口口 |③---|
口口③口
口口口口

④④口⑤
口口口口
口口口口 |④---|
⑥口口口 |⑤-⑥-|
19
④口③口 |--①-|
②口⑤③ |②-③-|
⑥②口① |--④-|
口口①口 |⑤-⑥-|
20
口口口口 |①---|
口口口口 |②-③-|
口口③口
口②①①

④④⑤口
口口口⑤
口⑥口⑦ |④-⑤-|
⑥口⑦口 |⑥-⑦-|
21
③④⑤⑥ |--①②|
口①②口 |③④⑤⑥|
⑪⑫⑬⑭ |⑦⑧⑨⑩|
⑦⑧⑨⑩ |⑪⑫⑬⑭|
22
口口②口 |①-②-|
①③口② |③---|
口口口口
③口口口

⑥④⑥④
口口口口
口口口口 |④---|
口口口⑤ |⑤-⑥-|
23
口口口口 |--①-|
③④③口 |②-③-|
①⑥⑤② |--④-|
口①②口 |⑤-⑥-|
24
②①①口 |①---|
⑤⑤③① |②-③-|
①⑥⑥口 |④-⑤-|
④①①口 |--⑥-|
25
口口口口 |①-②-|
④口②⑤ |--③-|
④口口⑤ |--④-|
口③③① |⑤---|
26
口口①① |--①-|
口口口口 |②---|
口口口口
②②口口

⑤口⑤口
③③③③
③③③③ |③---|
口口口④ |④-⑤-|
27
口口口④ |--①-|
⑤口②口 |②-③-|
口③口⑥ |--④-|
口①口口 |⑤-⑥-|
28
④口口口 |①---|
口②口口 |②-③-|
⑥口③⑤ |④-⑤-|
①口⑦口 |⑥-⑦-|
29
口②①口 |--①②|
⑥⑤④③ |③④⑤⑥|
⑩⑨⑧⑦ |⑦⑧⑨⑩|
口口口⑪ |⑪---|
30
①③⑤⑦ |①-②-|
口口口口 |③-④-|
口口口口 |⑤-⑥-|
②④⑥口 |⑦---|
31
⑥口口口 |①-②-|
③①④② |③-④-|
①③②④ |⑤---|
口⑤⑤⑦ |⑥-⑦-|
32
口①①① |①---|
口④②口 |②---|
口②④口 |③---|
③③③口 |④---|
33
①口口口 |①---|
①④②③ |②---|
①②④③ |③---|
口口口③ |④---|
34
①①①口 |①---|
口③口口 |----|
口口口口 |②---|
口口②口 |③---|
35
口口口① |①---|
②口口口 |②---|
口口口③ |③---|
④口口口 |④---|
36
口口口口 |①---|
②口口② |--②-|
口①①口 |③---|
③④④③ |--④-|
37
口口口口 |--①②|
口⑤⑥⑦ |③④⑤⑥|
①②③④ |⑦---|
口⑧⑧口 |⑧---|
38
①①①① |①---|
口口口口 |--②-|
口口口口
口口口②

⑥⑥⑤口
④③口⑤
③④口口 |③-④-|
口口口口 |⑤-⑥-|
39
口口⑤② |①---|
口③②口 |②-③-|
③⑥④口 |④---|
⑤①①④ |⑤-⑥-|
40
①③口② |①---|
口口口④ |②---|
④口口口 |③---|
口②①③ |④---|
41
口口口口 |①-②-|
③③③口 |③-④-|
口①①①
②④口口

口⑤⑤⑤
口口口口
口口口⑧ |⑤-⑥-|
口口⑦⑥ |⑦-⑧-|
42
口⑤⑥⑥ |①---|
口口③④ |--②-|
⑤口①口 |③-④-|
②口④③ |⑤-⑥-|
43
②口口口 |①---|
口②③口 |②-③-|
口口①③
口①口口

口口口口
④口口口
口④口口 |④---|
⑤⑤口口 |--⑤-|
44
口②①① |①---|
②③④口 |②---|
口⑤⑥② |③-④-|
口口②口 |⑤-⑥-|
45
①②③口 |--①②|
口口⑤口 |③-④-|
④口口口 |⑤---|
口⑥⑥口 |⑥---|
46
①①①① |①---|
口口口口 |--②-|
口口口口
口口口②

⑥⑥⑤口
④③口⑤
③④口口 |③-④-|
口口口口 |⑤-⑥-|
47
口口⑤② |①---|
口③②口 |②-③-|
③⑥④口 |④---|
⑤①①④ |⑤-⑥-|
48
①③口② |①---|
口口口④ |②---|
④口口口 |③---|
口②①③ |④---|
49
口口口口 |①-②-|
③③③口 |③-④-|
口①①①
②④口口

⑧⑤⑤⑤
口口口⑦
⑥⑦口口 |⑤-⑥-|
口口⑧⑥ |⑦-⑧-|
50
口口口口 |①---|
口口①口 |--②-|
口口口口
①口口②

⑥⑥口⑤
④③⑤口
③④口口 |③-④-|
口口口口 |⑤-⑥-|
51
口口②口 |①---|
③口④② |②-③-|
口③口④ |④---|
口①①⑤ |--⑤-|
52
②①①② |①---|
③③⑥⑥ |②---|
口②②口 |③-④-|
⑤⑤④④ |⑤-⑥-|
53
④口口⑤ |--①②|
口口口口 |③-④-|
口①②③ |⑤---|
口口口口 |----|
54
口⑦①口 |①-②-|
⑥口口③ |③-④-|
口口②⑥ |⑤---|
口⑤⑤④ |⑥-⑦-|
55
口口③③ |--①-|
口②②口 |②-③-|
①①口口 |----|
口口口口 |----|
56
口①口口 |①-②-|
口①②② |③-④-|
④④③口
口口③口

⑤口口⑤
口⑦⑦口
口口口口 |⑤---|
⑥口口⑥ |⑥-⑦-|
57
口①③口 |--①-|
口口⑥口 |②-③-|
②⑤口口 |--④-|
④口口口 |⑤-⑥-|
58
口④口口 |①-②-|
②口口口 |③-④-|
③口口口
口①口口

⑥口口⑥
口口口口
口⑤⑤口 |⑤---|
口⑦⑦口 |⑥-⑦-|
59
④①②④ |--①-|
①③③② |②-③-|
④③③④ |--④-|
口口口口 |----|
60
口④①口 |①--②|
④口口① |--③-|
⑥⑥⑤⑤ |--④-|
③③②② |⑤-⑥-|
61
①③③① |①--②|
③①①③ |--③-|
口口口口
②②②②

口口口④
口口口口
口口口口 |----|
口口口口 |④---|

accuracy: 99.5%
最終更新:2023年06月01日 02:48