アットウィキロゴ
向日葵サンセット
ARM・まろん (IOSYS) × ランコ・パプリカ (豚乙女)

BASIC

Level: 3
BPM: 135
Notes: 172

1
口口口口 |----|
口口口口 |----|
口口口口 |----|
口口口口 |----|
2
口口口口 |①---|
口①口口 |----|
口口口口 |----|
口口口口 |----|
3
口口口口 |①---|
口口①口 |----|
口口口口 |----|
口口口口 |----|
4
口口口口 |①---|
口口口口 |----|
口①口口 |----|
口口口口 |----|
5
口口口口 |①---|
口口口口 |----|
口口①口 |----|
口口口口 |----|
6
口口口口 |①---|
①②口口 |----|
口口口口 |②---|
口口口口 |----|
7
口口口口 |①---|
口口①② |----|
口口口口 |②---|
口口口口 |----|
8
口口口口 |①---|
①②口口 |----|
口口口口 |②---|
口口口口 |----|
9
口口口口 |①---|
口②②口 |----|
口①①口 |②---|
口口口口 |----|
10
①口口口 |①---|
口口口口 |----|
口口口口 |----|
口口口口 |----|
11
口口口口 |①---|
①口口口 |----|
口口口口 |----|
口口口口 |----|
12
口口口口 |①---|
口口口口 |----|
①口口口 |----|
口口口口 |----|
13
口口口口 |①---|
口口口口 |----|
口口口口 |----|
①口口口 |----|
14
口口口口 |①---|
口口口口 |②---|
口①②口 |③---|
口③④口 |④---|
15
口口口口 |①---|
口口口口 |②---|
口①②口 |③---|
口③④口 |④---|
16
口口口口 |①---|
口口口口 |②---|
口①②口 |③---|
口③④口 |④---|
17
口口口口 |①---|
③口口③ |②---|
②口口② |③---|
①口口① |----|
18
口口口① |①---|
口口口口 |----|
口口口口 |----|
口口口口 |----|
19
口口口口 |①---|
口口口① |----|
口口口口 |----|
口口口口 |----|
20
口口口口 |①---|
口口口口 |----|
口口口① |----|
口口口口 |----|
21
口口口口 |①---|
口口口口 |----|
口口口口 |----|
口口口① |----|
22
口口口口 |①---|
口口口口 |②---|
口①②口 |③---|
口③④口 |④---|
23
口口口口 |①---|
口口口口 |②---|
口①②口 |③---|
口③④口 |④---|
24
口口口口 |①---|
①口口① |----|
口口口口 |----|
口口口口 |----|
25
口口口口 |①---|
口①①口 |----|
口口口口 |----|
口口口口 |----|
26
口①口口 |①---|
口口②口 |②---|
口③口口 |③---|
口口④口 |④---|
27
口口口口 |①---|
②口口② |----|
①口口① |②---|
口口口口 |----|
28
口①口口 |①---|
口②口口 |②---|
口③口口 |③---|
口口口口 |----|
29
口口①口 |①---|
口口②口 |②---|
口口③口 |③---|
口口口口 |----|
30
①口口② |①---|
③口口④ |②---|
口口口口 |③---|
口口口口 |④---|
31
口口口口 |①---|
口口口口 |②---|
①口口② |③---|
③口口④ |④---|
32
口口口口 |①---|
口③口口 |②---|
口②口口 |③---|
口①口口 |----|
33
口口口口 |①---|
口口③口 |②---|
口口②口 |③---|
口口①口 |----|
34
①口口② |①---|
③口口④ |②---|
口口口口 |③---|
口口口口 |④---|
35
口口口口 |①---|
口口口口 |②---|
①口口② |③---|
③口口④ |④---|
36
口口口口 |①---|
口①①口 |----|
口口口口 |----|
口口口口 |----|
37
口口口口 |①---|
②口口② |----|
口①①口 |②---|
口口口口 |----|
38
口口口口 |①---|
口③④口 |②---|
口①②口 |③---|
口口口口 |④---|
39
口口口口 |①---|
①口口① |----|
口口口口 |----|
口口口口 |----|
40
口口口口 |①---|
口①②口 |②---|
口③④口 |③---|
口口口口 |④---|
41
口口口口 |①---|
口口口口 |----|
①口口① |----|
口口口口 |----|
42
口口口口 |①---|
①口口① |----|
②口口② |②---|
口口口口 |----|
43
口口口口 |①---|
口②②口 |----|
口②②口 |②---|
①口口① |----|
44
口口口口 |①---|
①②③④ |②---|
口口口口 |③---|
口口口口 |④---|
45
③③③③ |①---|
口口口口 |②---|
口①②口 |③---|
口口口口 |----|
46
口口口口 |①---|
口③④口 |②---|
口①②口 |③---|
口口口口 |④---|
47
口口口口 |①---|
①口口① |----|
口口口口 |----|
口口口口 |----|
48
口口口口 |①---|
口①②口 |②---|
口③④口 |③---|
口口口口 |④---|
49
口口口口 |①---|
口口口口 |----|
①口口① |----|
口口口口 |----|
50
口口口口 |①---|
①口口① |----|
②口口② |②---|
口口口口 |----|
51
口口口口 |①---|
口口口口 |----|
②口口② |②---|
①口口① |----|
52
口口口口 |①---|
①②②① |----|
口②②口 |②---|
口口口口 |----|
53
口口口口 |----|
口口口口 |----|
口口口口 |----|
口口口口 |----|
54
口口口口 |①---|
口①②口 |----|
口口口口 |②---|
口口口口 |----|
55
口口口口 |①---|
口口口口 |----|
口①②口 |②---|
口口口口 |----|
56
口口口口 |①---|
口①②口 |----|
口口口口 |②---|
口口口口 |----|
57
口口口口 |①---|
口口口口 |----|
口①②口 |②---|
口口口口 |----|
58
口口口口 |①---|
口口口① |----|
口口②口 |②---|
口口口口 |----|
59
②②②口 |①---|
②②②口 |----|
②②②口 |②---|
口①口口 |----|

accuracy: 99.5%
最終更新:2023年06月29日 13:13