アットウィキロゴ
向日葵サンセット
ARM・まろん (IOSYS) × ランコ・パプリカ (豚乙女)

ADVANCED

Level: 6
BPM: 135
Notes: 457

1
口口口口 |----|
口①②口 |----|
口③口口 |--①-|
口口口口 |②-③-|
2
⑤④③② |①--②|
口口口口 |-③-④|
⑥⑦①口 |-⑤--|
口口口口 |⑥-⑦-|
3
口④③口 |①---|
②口口口 |----|
口口①口 |-②--|
口口口口 |③-④-|
4
①口口口 |①---|
②③④口 |-②-③|
口口⑥⑤ |-④--|
口口口口 |⑤-⑥-|
5
口口口口 |①---|
口口口口 |----|
口①口口 |----|
口口口口 |----|
6
①④口口 |①-②-|
②⑤口口 |③--④|
③⑥⑦口 |-⑤-⑥|
口口⑧口 |⑦-⑧-|
7
①④口口 |①-②-|
②⑤口口 |③--④|
③⑥⑦口 |-⑤-⑥|
口口⑧口 |⑦-⑧-|
8
①②③④ |①-②-|
⑧⑦⑥⑤ |③-④-|
口口口口 |⑤-⑥-|
口口口口 |⑦-⑧-|
9
口①①口 |①--②|
口④④口 |-③-④|
口③③口 |----|
口②②口 |----|
10
口口①口 |①-②-|
口②口口 |③-④-|
口口③口 |----|
口④口口 |----|
11
口④口⑤ |①-②-|
口口③⑥ |③-④-|
口②口⑦ |--⑤-|
口口①口 |⑥-⑦-|
12
口口④口 |①-②-|
口③口口 |③-④-|
口口②口 |----|
口①口口 |----|
13
⑤①口口 |①-②-|
⑥口②口 |③-④-|
⑦③口口 |--⑤-|
口口④口 |⑥-⑦-|
14
⑥⑦口⑤ |--①-|
③④口口 |②-③④|
口⑧口② |-⑤-⑥|
口①口口 |⑦-⑧-|
15
⑥⑦口⑤ |--①-|
③④口口 |②-③④|
口⑧口② |-⑤-⑥|
口①口口 |⑦-⑧-|
16
口口口口 |--①-|
口口④③ |②-③④|
口口①口
口②口口

⑤口⑦⑥
口口口口
口口⑧口 |-⑤-⑥|
口口口口 |⑦-⑧-|
17
口口口口 |①-②-|
①②②① |③-④⑤|
④⑤口口 |----|
口③③口 |----|
18
口口①口 |①-②-|
口②口口 |③-④-|
口口③口 |----|
口④口口 |----|
19
口④口⑤ |①-②-|
口口③⑥ |③-④-|
口②口⑦ |--⑤-|
口口①口 |⑥-⑦-|
20
口口④口 |①-②-|
口③口口 |③-④-|
口口②口 |----|
口①口口 |----|
21
⑤①口口 |①-②-|
⑥口②口 |③-④-|
⑦③口口 |--⑤-|
口口④口 |⑥-⑦-|
22
④口③② |--①-|
⑤口口⑤ |②③-④|
口⑥⑦口 |----|
口①口口 |⑤-⑥⑦|
23
口口③③ |----|
口②④④ |①-②-|
①口口口 |③---|
口口口口 |④---|
24
口口口② |①---|
③口口口 |②---|
口①①④ |③---|
口口口口 |④---|
25
①口口口 |①---|
口口口② |②---|
③口口口 |③---|
口口口④ |④---|
26
①②③口 |①-②-③-|
口⑥⑤④ |④-⑤-⑥-|
⑦⑧⑨口 |⑦-⑧-⑨-|
口⑫⑪⑩ |⑩-⑪-⑫-|
27
口⑥⑥⑦ |①-②-③-|
④①②⑤ |--④-⑤-|
口③口⑧ |⑥---|
口口口口 |⑦-⑧-|
28
口口口口 |①-②-|
①②③口 |③-④⑤|
①②③口 |----|
口④⑤口 |----|
29
口①②口 |①②③④|
⑦③④⑦ |⑤⑥-⑦|
口⑤⑥口
口口口口

口口⑧⑧
口⑨⑩口
口口口口 |----|
口口口口 |⑧-⑨⑩|
30
①①④④ |--①-|
口口口口 |②③-④|
口②③口
口口口口

⑧⑧口口
口口⑤⑤
口口口口 |--⑤-|
口⑥⑦口 |⑥⑦-⑧|
31
⑤口④④ |--①-|
①①口口 |②③-④|
⑥②③口 |----|
口口口口 |⑤-⑥-|
32
口口口口 |①-②-|
口③②① |③-④⑤|
口③②① |----|
口④⑤口 |----|
33
口①②口 |①②③④|
⑦③④⑦ |⑤⑥-⑦|
口⑤⑥口
口口口口

口口口⑧
口口⑨口
口口口口 |----|
口口口口 |⑧-⑨-|
34
口口口口 |①---|
口口口口 |----|
口①口口
口口口口

口口口口
口口④口
口③口口 |②--③|
口口②口 |--④-|
35
②口口口 |①---|
①②口① |②---|
口口②口
口口口②

口口口③
④口③④
④③口④ |③---|
③口口口 |④---|
36
口①口口 |①---|
口①口口 |----|
口口①口 |----|
口口①口 |----|
37
口口口口 |①-②-③-|
①②③口 |--④-⑤-|
口口⑤④
口口口口

口⑧⑨口
⑦口口口
口⑥口口 |⑥-⑦-|
口口口口 |⑧-⑨-|
38
③③④④ |①---|
口⑤⑥① |--②-|
口②②口 |③-④-|
口⑦⑦口 |⑤⑥-⑦|
39
口口口口 |----|
口口口口 |----|
口口口① |--①-|
口③②口 |②-③-|
40
②口口② |①---|
口口口口 |--②-|
①口口口
口口口口

口⑦⑦口
③口口③
④⑤⑥④ |③-④-|
口口口口 |⑤⑥-⑦|
41
①口口口 |----|
口口口口 |----|
口口口口 |----|
口口口① |--①-|
42
⑥①④③ |①--②|
②⑤②⑤ |--③-|
⑤②⑤② |④--⑤|
③④①⑥ |--⑥-|
43
口①口口 |①--②|
②口②③ |--③-|
③②口②
口口①口

⑤口④④
⑥口口口
口口口口 |④---|
④④口口 |--⑤⑥|
44
口口口② |①--②|
⑤③④⑥ |--③-|
①④③口 |④--⑤|
口口口口 |--⑥-|
45
口口口口 |--①-②-|
口口口口 |③-④-⑤-|
①②③口
口⑤④口

⑦口口⑦
⑦口口⑦
⑦口口⑦ |⑥---|
⑥口口口 |⑦---|
46
口①口口 |①---|
口口口口 |--②-|
口②②口
口口口口

④④③③
口⑤⑥口
口口口口 |③-④-|
口⑦⑦口 |⑤⑥-⑦|
47
口口口口 |----|
口口口口 |----|
①口口口 |--①-|
口②③口 |②-③-|
48
②口口② |①---|
口口口口 |--②-|
口口口①
口口口口

口⑦⑦口
③口口③
④⑤⑥④ |③-④-|
口口口口 |⑤⑥-⑦|
49
①口口口 |----|
口口口口 |----|
口口口口 |----|
口口口① |--①-|
50
⑥①④③ |①--②|
②⑤②⑤ |--③-|
⑤②⑤② |④--⑤|
③④①⑥ |--⑥-|
51
口①口口 |①--②|
②③②口 |--③-|
口②口②
口口①口

④口⑤⑤
口口⑥⑥
口口口口 |④--⑤|
口口口口 |--⑥-|
52
②口口口 |①---|
①③口口 |--②③|
口口④口 |④---|
口口口口 |----|
53
口口①口 |-①②③|
口②③口 |④⑤⑥⑦|
口④⑤口
口⑥⑦口

口口口口
⑫口口口
⑩⑬口⑪ |⑧⑨⑩⑪|
⑧口口⑨ |⑫-⑬-|
54
④③②① |①-②-③-|
口口口口 |④---|
⑧⑦⑥⑤ |⑤-⑥-⑦-|
口口口口 |⑧---|
55
①口口① |①---②-|
②③口② |--③-④-|
口口④口 |⑤---|
口⑤口口 |----|
56
④③②① |①-②-③-|
口口口口 |④---|
⑧⑦⑥⑤ |⑤-⑥-⑦-|
口口口口 |⑧---|
57
①口口② |①---②-|
口③④口 |--③-④-|
口⑤口口 |⑤---|
口口口口 |----|
58
口口口口 |①-②-③-|
口口口口 |④---|
⑦⑤⑥⑧ |⑤-⑥-⑦-|
③①②④ |⑧---|
59
②②②口 |①---|
②②②① |----|
②②②口 |②---|
口口口口 |----|

accuracy: 99.5%
最終更新:2023年06月29日 13:28