アットウィキロゴ
向日葵サンセット
ARM・まろん (IOSYS) × ランコ・パプリカ (豚乙女)

EXTREME

Level: 9.1
BPM: 135
Notes: 647

1
口口口口 |----|
③口口口 |----|
②口口口 |--①-|
①口口口 |②-③-|
2
口②口① |①--②|
口口③口 |-③-④|
口④口口
口口口口

口口口⑥
口口口⑦
口口口口 |-⑤--|
口口⑤口 |⑥-⑦-|
3
口口口口 |①②③④|
口口口口 |⑤⑥⑦⑧|
②③④①
⑧⑦⑥⑤

⑨口口口
口⑩⑪口
口口⑫口 |-⑨-⑩|
口口口口 |⑪-⑫-|
4
④口口⑤ |①---|
③口口⑥ |-②-③|
②口口口 |-④--|
口口①口 |⑤-⑥-|
5
③口口口 |①--②|
⑦⑥⑤④ |--③-|
口②口① |④⑤⑥⑦|
⑧⑨⑩⑪ |⑧⑨⑩⑪|
6
⑦⑥③⑧ |①-②-|
⑤口口② |③--④|
口④①口 |-⑤-⑥|
口口口口 |⑦-⑧-|
7
⑦⑥③⑧ |①-②-|
⑤口口② |③--④|
口④①口 |-⑤-⑥|
口口口口 |⑦-⑧-|
8
⑪⑮⑫⑯ |①②③④|
⑨⑬⑩⑭ |⑤⑥⑦⑧|
①⑤②⑥ |⑨⑩⑪⑫|
③⑦④⑧ |⑬⑭⑮⑯|
9
⑤口⑤口 |①②-③|
③⑤口⑤ |-④-⑤|
③①②④ |----|
口口口④ |----|
10
口④⑥③ |①-②-|
③口口口 |③-④-|
口②口口 |⑤---|
①口⑤① |⑥---|
11
①口口③ |①-②-|
口②口口 |③-④-|
③口口口
口④口①

⑦⑥⑦口
⑧口口口
口口口口 |⑤-⑥-|
口口⑤口 |⑦-⑧-|
12
④口⑥③ |①-②-|
口③口口 |③-④-|
②口口口 |⑤---|
口①⑤① |⑥---|
13
口①口③ |①-②-|
②口口口 |③-④-|
口③口口
④口口①

口⑧⑦口
口⑦口口
⑥口口口 |⑤-⑥-|
口口⑤口 |⑦-⑧-|
14
口口口口 |--①-|
②口口口 |②-③④|
③④口口
口①口口

⑥⑦口口
口⑤口口
口口口口 |-⑤-⑥|
口⑧口口 |⑦-⑧-|
15
口口口口 |--①-|
口口口② |②-③④|
口口④③
口口①口

口口⑦⑥
口口⑤口
口口口口 |-⑤-⑥|
口口⑧口 |⑦-⑧-|
16
②口口口 |--①-|
③④口口 |②-③④|
口口口口
①口口口

⑧口口口
口口口口
⑥⑦口口 |-⑤-⑥|
口⑤口口 |⑦-⑧-|
17
口口③口 |①-②-|
②口②口 |③-④⑤|
⑤④口③
①口①口

⑦口口⑥
口口口口
口口口口 |-⑥--|
口⑥⑦口 |⑦---|
18
口口④口 |①-②-|
③⑤口③ |③-④⑤|
⑤③②口 |----|
①⑥口① |⑥---|
19
①口口① |①-②-|
⑤③②口 |③-④⑤|
③⑤口③
口口④口

口⑦⑥⑦
口口口⑧
口口口口 |--⑥-|
口口口口 |⑦-⑧-|
20
口口口④ |①-②-|
③⑤③口 |③-④⑤|
⑤③口② |----|
⑥①①口 |⑥---|
21
①口①口 |①-②-|
⑤③口② |③-④⑤|
③⑤③口
口口口④

口⑦⑧口
口口⑦口
口口口⑥ |--⑥-|
口口口口 |⑦-⑧-|
22
口口口口 |--①-|
④口口④ |②③-④|
②③口口
口④①口

⑦口口⑦
口⑥⑥口
口口⑦⑤ |----|
口口⑤口 |⑤-⑥⑦|
23
口口③口 |----|
口④口③ |①-②-|
①口④口 |③---|
口①②口 |④---|
24
口①口③ |①-②③|
口口①② |-④-⑤|
⑤①口④
口口①口

口⑧⑦口
口⑥口口
口口口口 |-⑥-⑦|
口⑨口口 |⑧-⑨-|
25
口口口口 |①②③④|
口⑥③④ |-⑤-⑥|
⑤口①②
口口口口

⑪⑧⑦口
口口口口
口⑩⑨口 |-⑦⑧⑨|
口口口口 |⑩-⑪-|
26
口⑫⑪⑩ |①-②-③-|
⑦⑧⑨口 |④-⑤-⑥-|
口⑥⑤④ |⑦-⑧-⑨-|
①②③口 |⑩-⑪-⑫-|
27
口口口口 |①-②-③-|
口口口口 |--④-⑤-|
⑤①②④
口③口口

⑥⑥口口
口口⑦口
口⑧⑧口 |⑥---|
⑦口口口 |⑦-⑧-|
28
②口③① |①-②-|
口③口口 |③-④⑤|
口口口口
⑤④口口

⑦口口⑦
⑦口口⑦
⑦⑥⑥⑦ |--⑥-|
口口口口 |⑦---|
29
口③④口 |①②③④|
口⑦⑦口 |⑤⑥-⑦|
口口口口
⑤①②⑥

⑨口口⑨
⑨口口⑨
⑨⑧⑧⑨ |--⑧-|
⑪⑩口口 |⑨-⑩⑪|
30
口④①⑧ |--①-|
⑤④①⑧ |②③-④|
⑦⑥口口 |--⑤-|
口⑤②③ |⑥⑦-⑧|
31
③②④口 |--①-|
口④口口 |②③-④|
口口④口
口④①①

口口口口
⑥口⑤口
口口口口 |----|
⑤口⑥口 |⑤-⑥-|
32
②口③① |①-②-|
口③口口 |③-④⑤|
口口口口
⑤④口口

⑦口口⑦
⑦口口⑦
⑦⑥⑥⑦ |--⑥-|
口口口口 |⑦---|
33
⑦③④⑦ |①②③④|
⑦⑤⑥⑦ |⑤⑥-⑦|
口⑦⑦⑨ |----|
⑧①②口 |⑧-⑨-|
34
口①口口 |①---|
口口①口 |②---|
口口口口
口②口口

③口口④
口口口口
③口口④ |③--④|
口⑤⑤口 |--⑤-|
35
②①②口 |①---|
①口①口 |②---|
②①②口
口口口口

口④口口
口③口④
口④口③ |③---|
口③④③ |④---|
36
①口②口 |①②③④|
③口④口 |⑤⑥⑦⑧|
⑤口⑥口
⑦口⑧口

⑩⑪⑪⑨
⑩口口⑨
口口口口 |-⑨--|
口口口口 |⑩-⑪-|
37
口口口口 |①-②-③-|
口③口口 |--④-⑤-|
口②⑤口
口①④口

⑥口⑧⑥
⑨口口⑦
⑦口口⑨ |⑥-⑦-|
口⑧口口 |⑧-⑨-|
38
口①口② |①---|
口口②口 |--②-|
口口口口
口口①口

③口⑦口
⑦口口口
口③⑥⑤ |③-④-|
口④④口 |⑤⑥-⑦|
39
②①口口 |----|
口口①口 |①--②|
①口②②
口口①口

口口口口
口④⑤⑤
口④口口 |--③-|
③③口口 |④-⑤-|
40
⑦①③② |①---|
①口⑦口 |--②-|
⑤⑥②③ |③-④-|
口④④口 |⑤⑥-⑦|
41
口①②口 |----|
①②口③ |①--②|
③口②① |----|
口②①口 |--③-|
42
⑤②③④ |①--②|
②⑤①⑥ |--③-|
⑥①⑤② |④--⑤|
④③②⑤ |--⑥-|
43
③②口口 |①--②|
②③①口 |--③-|
口①③②
口口②③

口口④④
⑥口口口
口⑤口口 |④---|
④④口口 |--⑤⑥|
44
口①口② |①--②|
口④⑥口 |--③-|
③⑥④⑤ |④--⑤|
口③⑤口 |--⑥-|
45
⑥口⑦⑥ |--①-②-|
⑦③⑦② |③-④-⑤-|
⑤⑦口⑦ |⑥---|
①⑦④口 |⑦---|
46
②①口口 |①---|
口②口口 |--②-|
口口口口
口口①口

口⑦口③
口口口⑦
⑤⑥③口 |③-④-|
口④④口 |⑤⑥-⑦|
47
口口①② |----|
①口口口 |①--②|
②②口①
口①口口

③口口口
⑤④口口
口口④口 |--③-|
口口⑤③ |④-⑤-|
48
②口①口 |①---|
口口口① |--②-|
口②口口
口①口口

口③口⑦
口⑦口口
③口⑥⑤ |③-④-|
口④④口 |⑤⑥-⑦|
49
③②①口 |----|
③口①② |①--②|
②①口口 |----|
口①②口 |--③-|
50
口②③口 |①--②|
口②③口 |--③-|
口①口口
①②口口

口⑥口⑤
口⑥口⑤
口口口④ |④--⑤|
口口④⑤ |--⑥-|
51
③口②口 |①--②|
口口②口 |--③-|
口③①口
口①②口

口口⑥⑤
④口口④
口口⑥⑤ |④--⑤|
口口口口 |--⑥-|
52
①②口口 |①---|
②口③口 |--②③|
口③口④ |④---|
口口④口 |----|
53
①②③口 |-①②③|
口口口口 |④⑤⑥⑦|
⑦⑥⑤④
口口口口

口口⑬口
口口口⑫
口口口口 |⑧⑨⑩⑪|
⑧⑨⑩⑪ |⑫-⑬-|
54
②③口口 |①-②-③-|
①④口口 |④---|
口口⑧⑤ |⑤-⑥-⑦-|
口口⑦⑥ |⑧---|
55
口⑤④③ |①---②-|
口⑤④③ |--③-④-|
①②口口 |⑤---|
②①口口 |----|
56
⑤口口① |①-②-③-|
⑥⑧④② |④---|
⑦口口③ |⑤-⑥-⑦-|
口口口口 |⑧---|
57
口口口① |①---②-|
③口口口 |--③-④-|
口④口② |⑤---|
口口⑤口 |----|
58
口④⑧口 |①-②-③-|
③口口⑦ |④---|
②口口⑥ |⑤-⑥-⑦-|
口①⑤口 |⑧---|
59
①②②口 |①---|
口②②口 |----|
口口②口 |②---|
口②②口 |----|

accuracy: 99.5%
最終更新:2023年06月29日 13:43