アットウィキロゴ
From⑨Girl
uno (IOSYS) × 越田Rute隆人&あき (A-One)

BASIC

Level: 2
BPM: 113
Notes: 138

1
口口口口 |----|
口口口口 |----|
口口口口 |----|
口口口口 |----|
2
口口口口 |----|
口口口口 |----|
口口口口 |----|
口口口口 |----|
3
口口口口 |①---|
口口口口 |----|
口口口口 |②---|
口②①口 |----|
4
口口口口 |①---|
口口口口 |----|
口口①口 |----|
口口口口 |----|
5
口口口口 |①---|
口②①口 |----|
口口口口 |②---|
口口口口 |----|
6
口②①口 |①---|
口口口口 |----|
口口口口 |②---|
口口口口 |----|
7
口口口口 |①---|
口口口口 |----|
口口①口 |----|
口口口口 |----|
8
口口口口 |①---|
口口口口 |----|
口①口口 |----|
口口口口 |----|
9
口口口口 |①---|
口口①口 |----|
口口口口 |----|
口口口口 |----|
10
口口口口 |①---|
口①口口 |----|
口口口口 |----|
口口口口 |----|
11
口口口口 |①---|
口口①口 |----|
口口口口 |----|
口口口口 |----|
12
口口口口 |①---|
口①口口 |----|
口口口口 |----|
口口口口 |----|
13
口口①口 |①---|
口口口口 |----|
口口口口 |----|
口口口口 |----|
14
口①口口 |①---|
口口口口 |----|
口口口口 |----|
口口口口 |----|
15
口口②① |①---|
口口口口 |----|
口口口口 |②---|
口口口口 |----|
16
②①口口 |①---|
口口口口 |----|
口口口口 |②---|
口口口口 |----|
17
口口口口 |①---|
口口②① |----|
口口口口 |②---|
口口口口 |----|
18
口口口口 |①---|
②①口口 |----|
口口口口 |②---|
口口口口 |----|
19
口口口口 |①---|
口口①口 |②---|
口②口口 |③---|
口口③口 |----|
20
口口口口 |①---|
口①口口 |②---|
口口②口 |③---|
口③口口 |----|
21
口口口口 |①---|
口②②口 |----|
口①①口 |②---|
口口口口 |----|
22
口①①口 |①---|
口口口口 |----|
口口口口 |----|
口口口口 |----|
23
口口口口 |①---|
口③②① |②---|
口口口口 |③---|
口口口口 |----|
24
①口口口 |①---|
口口口口 |----|
口口口口 |----|
口口口口 |----|
25
口口口口 |①---|
口口口口 |②---|
口③②① |③---|
口口口口 |----|
26
口口口口 |①---|
①口口口 |----|
口口口口 |----|
口口口口 |----|
27
口口口口 |①---|
口口口口 |②---|
口口口口 |③---|
口③②① |----|
28
②口口口 |①---|
口口口口 |----|
①口口口 |②---|
口口口口 |----|
29
口口①口 |①---|
口②口口 |②---|
口口③口 |③---|
口④口口 |④---|
30
口③③口 |①---|
口②②口 |②---|
口①①口 |③---|
口口口口 |----|
31
口口口口 |----|
口口口口 |①---|
口口③口 |②---|
口②①口 |③---|
32
口①①口 |----|
口①①口 |----|
口口口口 |①---|
口口口口 |----|
33
口口口口 |----|
口口口口 |①---|
口口③口 |②---|
口②①口 |③---|
34
口①①口 |----|
口①①口 |----|
口口口口 |①---|
口口口口 |----|
35
口口口口 |①---|
口口②口 |----|
口口①口 |②---|
口口口口 |----|
36
口口①口 |①---|
口口口口 |----|
口口口口 |----|
口口口口 |----|
37
口口口口 |①---|
口②口口 |----|
口①口口 |②---|
口口口口 |----|
38
口①口口 |①---|
口口口口 |----|
口口口口 |----|
口口口口 |----|
39
口口口口 |①---|
口口口口 |----|
口①①口 |----|
口口口口 |----|
40
口口口口 |①---|
口①①口 |----|
口口口口 |----|
口口口口 |----|
41
②①①② |①---|
口口口口 |----|
口口口口 |②---|
口口口口 |----|
42
口口口口 |①---|
②口口② |----|
口①①口 |②---|
口口口口 |----|
43
口口口口 |----|
口口口口 |----|
口口口口 |----|
口口口口 |----|
44
口口口口 |①---|
④③②① |②---|
口口口口 |③---|
口口口口 |④---|
45
①口口口 |①---|
口口口口 |----|
口口口口 |----|
口口口口 |----|
46
口口口口 |①---|
口口口口 |②---|
④③②① |③---|
口口口口 |④---|
47
口口口口 |①---|
①口口口 |----|
口口口口 |----|
口口口口 |----|
48
口口口口 |①---|
口口口口 |②---|
口口口口 |③---|
④③②① |④---|
49
②口口口 |①---|
口口口口 |----|
①口口口 |②---|
口口口口 |----|
50
口口①口 |①---|
口②口口 |②---|
口口③口 |③---|
口④口口 |④---|
51
④③③④ |①---|
口②②口 |②---|
口①①口 |③---|
口口口口 |④---|
52
口口口口 |①---|
口口①口 |----|
口口口口 |----|
口口口口 |----|
53
口④口口 |①---|
口③口口 |②---|
口②口口 |③---|
口①口口 |④---|
54
口④④口 |①---|
口③③口 |②---|
口②②口 |③---|
口①①口 |④---|
55
口口口口 |①---|
口口口口 |----|
口口口口 |②---|
口②①口 |----|
56
口②②口 |①---|
口②②口 |----|
口口①口 |②---|
口口口口 |----|

accuracy: 99.5%
最終更新:2023年03月11日 13:35