アットウィキロゴ
From⑨Girl
uno (IOSYS) × 越田Rute隆人&あき (A-One)

ADVANCED

Level: 5
BPM: 113
Notes: 319

1
口口口口 |----|
口口口口 |----|
口口口口 |----|
口口口口 |----|
2
口口口口 |----|
口口口口 |----|
口口口口 |----|
口口口口 |----|
3
口②①口 |①---|
口④③口 |②---|
口口口口 |③---|
口口口口 |④---|
4
口口口口 |①--②|
口口口口 |--③-|
口口①口 |----|
口②③口 |----|
5
口②①口 |①---|
口④③口 |②---|
口口口口 |③---|
口口口口 |④---|
6
口口口口 |①--②|
口口口口 |--③-|
口口①口 |----|
口②③口 |----|
7
④口④口 |①---|
口口口③ |②---|
②口②口 |③---|
口口口① |④---|
8
④口④口 |①---|
口③口口 |②---|
②口②口 |③---|
口①口口 |④---|
9
②口口① |①---|
口④③口 |②---|
口口口口 |③---|
口口口口 |④---|
10
口①①口 |①---|
口口②口 |②---|
口③口口 |③---|
口口④口 |④---|
11
口④口④ |①---|
③口口口 |②---|
口②口② |③---|
①口口口 |④---|
12
口④口④ |①---|
口口③口 |②---|
口②口② |③---|
口口①口 |④---|
13
①口口② |①---|
口③④口 |②---|
口口口口 |③---|
口口口口 |④---|
14
口①①口 |①---|
口②口口 |②---|
口口③口 |③---|
口④口口 |④---|
15
口口口① |①---|
口口口② |②---|
口口口③ |③---|
口口口④ |④---|
16
①口口口 |①---|
②口口口 |②---|
③口口口 |③---|
④口⑤口 |④-⑤-|
17
口①口口 |①---|
口②口口 |②---|
口③口口 |③---|
口④口口 |④---|
18
口口①口 |①---|
口口②口 |②---|
口口③口 |③---|
⑤口④口 |④-⑤-|
19
口⑧口⑦ |①-②-|
口⑥口⑤ |③-④-|
口④口③ |⑤-⑥-|
口②口① |⑦-⑧-|
20
②口①口 |①-②-|
④口③口 |③-④-|
⑥口⑤口 |⑤-⑥-|
⑧口⑦口 |⑦-⑧-|
21
口口口口 |①---|
②②①① |②---|
④③③④ |③---|
口口口口 |④---|
22
口口口口 |①---|
②①①② |②---|
口①①口
口口口口

口③③口
口④④口
口口⑤口 |--③-|
口⑤⑤口 |④--⑤|
23
口口口口 |----|
口口口④ |----|
口③②口 |--①-|
①口口口 |②③-④|
24
口①①口 |----|
口②②口 |----|
口口③口 |--①-|
口③③口 |②--③|
25
④口口① |----|
口②③口 |----|
口口口口 |--①-|
口口口口 |②③-④|
26
口①①口 |----|
口②②口 |----|
口口③口 |--①-|
口③③口 |②--③|
27
口口①口 |----|
口②⑥口 |--①-|
口⑥③口 |②-③-|
口④⑤口 |④⑤-⑥|
28
口④③口 |--①-|
②①口② |②-③④|
口口①口
口口口口

口口口口
口⑤口口
口口口口 |--⑤-|
口口⑤口 |----|
29
口口⑤① |①-②-|
⑥②口口 |③-④-|
口口⑦③ |⑤-⑥-|
⑧④口口 |⑦-⑧-|
30
口口口口 |①---|
②②①① |---②|
口口口口
口口口口

口口口口
口⑧⑦口
口⑥⑤口 |--③④|
口④③口 |⑤⑥⑦⑧|
31
口口口口 |----|
③口口③ |①---|
①口口② |②--③|
口口口口 |----|
32
口①①口 |--①-|
口②②口 |②--③|
口口③口 |----|
口③③口 |----|
33
口口口口 |----|
③口口③ |①---|
①口口② |②--③|
口口口口 |----|
34
口①①口 |--①-|
口②②口 |②--③|
口口③口 |----|
口③③口 |----|
35
口口口口 |①---|
口口②口 |----|
口口口① |②---|
口口口口 |----|
36
口口口口 |①---|
口口口② |----|
口口①口 |②---|
口口口口 |----|
37
口口口口 |①---|
口②口口 |----|
①口口口 |②---|
口口口口 |----|
38
口口口口 |①---|
②口口口 |----|
口①口口 |②---|
口口口口 |----|
39
口口口口 |①---|
口②②口 |----|
①口口① |②---|
口口口口 |----|
40
口口口口 |①---|
③④④③ |②---|
②①①② |③---|
口口口口 |④---|
41
④口口④ |①---|
口③③口 |--②-|
口②②口 |----|
口①①口 |③-④-|
42
口口口口 |----|
口⑥⑤口 |----|
口④③口 |--①②|
口②①口 |③④⑤⑥|
43
口①①口 |----|
口②②口 |----|
口口③口 |--①-|
口③③口 |②--③|
44
口口口口 |----|
口口口⑥ |①---|
①⑤④② |②-③-|
③口口口 |④⑤-⑥|
45
口③③口 |--①-|
①④④口 |--②-|
口口⑤② |--③-|
口⑤⑤口 |④--⑤|
46
⑥口口③ |----|
口④⑤口 |①---|
①口口② |②-③-|
口口口口 |④⑤-⑥|
47
口③③口 |--①-|
②④④① |--②-|
口口⑤口 |--③-|
口⑤⑤口 |④--⑤|
48
口口①口 |----|
口②⑥口 |--①-|
口⑥③口 |②-③-|
口④⑤口 |④⑤-⑥|
49
口④③口 |--①-|
②①⑤② |②-③④|
口口①口 |--⑤-|
口⑤口口 |----|
50
口口⑤① |①-②-|
⑥②口口 |③-④-|
口口⑦③ |⑤-⑥-|
⑧④口口 |⑦-⑧-|
51
口口口口 |①---|
②②①① |---②|
口口口口
口口口口

口口口口
口⑧⑦口
口⑥⑤口 |--③④|
口④③口 |⑤⑥⑦⑧|
52
②口①口 |①---|
口口口口 |----|
口口口口 |②---|
口口口口 |----|
53
④口④口 |①---|
③口口口 |②---|
②口②口 |③---|
①口口口 |④---|
54
口④口④ |①---|
口口口③ |②---|
口②口② |③---|
口口口① |④---|
55
口②①口 |①---|
口④③口 |②---|
口口口口 |③---|
口口口口 |④---|
56
口口口口 |①--②|
口口口口 |--③-|
口口①口
口②③口

口口口口
口④⑤口
口⑥⑦口 |--④⑤|
口⑧⑨口 |⑥⑦⑧⑨|

accuracy: 99.5%
最終更新:2023年03月11日 13:48