アットウィキロゴ
From⑨Girl
uno (IOSYS) × 越田Rute隆人&あき (A-One)

EXTREME

Level: 8
BPM: 113
Notes: 530

1
口口口口 |----|
口口口口 |----|
口口口口 |----|
口口口口 |----|
2
口口口口 |----|
口口口口 |----|
口口口口 |----|
口口口口 |----|
3
口⑧①口 |①-②-|
⑥口口③ |③-④-|
④口口⑤ |⑤-⑥-|
口②⑦口 |⑦-⑧-|
4
口口口口 |①--②|
口②①口 |--③-|
口②①口 |----|
口口③口 |----|
5
口⑧①口 |①-②-|
⑥口口③ |③-④-|
④口口⑤ |⑤-⑥-|
口②⑦口 |⑦-⑧-|
6
口口口口 |①--②|
口②①口 |--③-|
口②①口 |----|
口口③口 |----|
7
口口口口 |①---|
口口口口 |----|
①口口口
口口口口

③④口口
口口口口
②口口口 |----|
口口口口 |②-③④|
8
口口口口 |----|
口口口口 |----|
口口口口 |----|
①口②口 |--①②|
9
口口④口 |①②③-|
③⑤⑥口 |④-⑤⑥|
①口②口
口口口口

⑨⑩口口
口口口口
⑧口口口 |--⑦-|
口口⑦口 |⑧-⑨⑩|
10
口口口口 |----|
口口口口 |----|
口口口口 |----|
口口口口 |----|
11
口口口口 |①---|
口口口口 |----|
①口口口
口口口口

③④口口
口口口口
②口口口 |----|
口口口口 |②-③④|
12
口口口口 |----|
口口口口 |----|
口口口口 |----|
口口①口 |--①-|
13
③⑤④口 |①-②-|
口口②口 |③-④⑤|
①口口口
口口口口

⑧⑨口口
口口⑥口
⑦口口口 |--⑥-|
口口口口 |⑦-⑧⑨|
14
口口口口 |----|
口口口口 |----|
口口口口 |----|
口口口口 |----|
15
①口口⑤ |①--②|
口④口口 |-③-④|
口口③口 |--⑤-|
口②口口 |----|
16
①口口⑤ |①--②|
口④口⑥ |-③-④|
口口③⑦ |--⑤-|
口②口口 |⑥-⑦-|
17
①口口⑤ |①--②|
口④口口 |-③-④|
口口③口 |--⑤-|
口②口口 |----|
18
①口口⑤ |①--②|
口④口⑥ |-③-④|
口口③口 |--⑤-|
口②口口 |⑥---|
19
①⑥⑤⑤ |①--②|
口④④口 |-③-④|
口③⑥③ |--⑤-|
②口口② |⑥---|
20
①口口口 |①--②|
口④④口 |-③-④|
口③口③
②口口②

⑤口口⑤
⑥口口⑥
⑦口口⑦ |--⑤-|
口口口口 |⑥-⑦-|
21
②口口② |①--②|
口口口口 |③--④|
口③③口
①④④①

口口⑦⑦
⑤口口⑤
⑥⑧⑧⑥ |⑤-⑥⑦|
口口口口 |--⑧-|
22
①①③③ |①②--|
①口③口 |③④--|
口口口口
口④②口

⑤⑤⑥⑥
⑤口⑥⑥
⑤⑤口⑥ |--⑤-|
⑤口⑥⑥ |---⑥|
23
口口①口 |----|
口②④口 |----|
口口③① |--①-|
口④口口 |②③-④|
24
口口④⑤ |--①②|
口口口口 |③-④⑤|
口①口③
口口②口

⑥⑥⑦⑦
⑥口⑦⑦
⑥⑥口⑦ |--⑥-|
⑥口⑦⑦ |---⑦|
25
①①口口 |----|
②口口口 |①-②-|
口口口口
口口口口

口⑦④口
口口口口
④⑥口⑦ |③-④-|
口③⑤③ |⑤⑥-⑦|
26
口口口① |--①-|
口口③口 |②-③-|
口口口口
口②口口

④④⑤⑤
④口⑤⑤
④④口⑤ |--④-|
④口⑤⑤ |---⑤|
27
口口口口 |----|
口口口口 |--①-|
口口①口
口口口口

⑥口口③
②⑥口口
口口⑥口 |②-③-|
口④⑤⑥ |④⑤-⑥|
28
口④③② |--①-|
①口②① |②-③④|
口②口口
②口口口

口口口口
口⑤口⑤
口口⑤口 |--⑤-|
口口口口 |----|
29
②③④① |①-②-|
口口口口 |③-④-|
口口口口
①④③②

⑥口口⑧
口⑤⑦口
⑤⑥⑧⑦ |⑤-⑥-|
口口口口 |⑦-⑧-|
30
③①③口 |①---|
口②⑧⑨ |②--③|
①⑥⑦③ |--④⑤|
④⑤①口 |⑥⑦⑧⑨|
31
①①③③ |----|
①口③③ |①---|
②②口③ |②--③|
②口③③ |----|
32
①①③③ |--①-|
①口③③ |②--③|
②②口③ |----|
②口③③ |----|
33
①①③③ |----|
①口③③ |①---|
②②口③ |②--③|
②口③③ |----|
34
①①③③ |--①-|
①口③③ |②--③|
②②口③ |----|
②口③③ |----|
35
口⑥⑥⑤ |①-②③|
口口④口 |-④-⑤|
口口②③ |--⑥-|
口口①口 |----|
36
口口⑦① |①--②|
口口②⑥ |-③-④|
口口③⑤ |--⑤-|
口口④口 |⑥-⑦-|
37
⑤⑥⑥口 |①-②③|
口④口口 |-④-⑤|
③②口口 |--⑥-|
口①口口 |----|
38
①口口口 |①--②|
口④口口 |-③-④|
口③口口
口②口口

⑤口口口
⑥口口口
口口口口 |--⑤-|
口口口口 |⑥---|
39
口口口口 |--①②|
口⑤⑤口 |③④-⑤|
③口口④
口①②口

⑧口口⑧
⑥口口⑥
口口口口 |--⑥-|
口⑦⑦口 |⑦-⑧-|
40
口②②口 |①-②-|
④①①④ |③-④-|
口③③口
口口口口

口口口口
口⑦⑦口
⑤⑧⑧⑤ |⑤-⑥-|
口⑥⑥口 |⑦-⑧-|
41
口①①口 |①---|
①口口① |--②-|
口口口口
口②②口

口④④口
④口口④
③③③③ |----|
口口口口 |③-④-|
42
口⑧⑨口 |①②--|
口②①⑦ |③④--|
⑥④③口 |--⑤⑥|
口⑩⑤口 |⑦⑧⑨⑩|
43
①①②② |----|
①口②② |----|
①①口② |--①-|
①口②② |---②|
44
口口①口 |----|
口②④口 |----|
口口③① |--①-|
口④口口 |②③-④|
45
口口④⑤ |--①②|
口口口③ |③-④⑤|
口①口③
口口②口

⑥⑥⑦⑦
⑥口⑦⑦
⑥⑥口⑦ |--⑥-|
⑥口⑦⑦ |---⑦|
46
①①口口 |----|
②口口口 |①-②-|
口口口口
口口口口

口⑦④口
口口口口
④⑥口⑦ |③-④-|
口③⑤③ |⑤⑥-⑦|
47
口口①① |--①-|
口口③③ |②-③-|
口口口口
口②②口

④④⑤⑤
④口⑤⑤
④④口⑤ |--④-|
④口⑤⑤ |---⑤|
48
⑥口⑥口 |----|
③⑥口② |--①-|
⑥口⑥口 |②-③-|
①⑤④口 |④⑤-⑥|
49
口②⑤② |--①-|
①④②③ |②-③④|
口②⑤② |--⑤-|
口口口口 |----|
50
②③④① |①-②-|
口口口口 |③-④-|
口口口口
①④③②

⑥口口⑧
口⑤⑦口
⑤⑥⑧⑦ |⑤-⑥-|
口口口口 |⑦-⑧-|
51
③①③口 |①---|
口②⑧⑨ |②--③|
①⑥⑦③ |--④⑤|
④⑤①口 |⑥⑦⑧⑨|
52
口③②① |①---|
口④口口 |②-③-|
口⑤口口 |④-⑤-|
⑦⑥口口 |⑥-⑦-|
53
④②④② |①---|
口口口口 |②---|
①④②③ |③---|
口口口口 |④---|
54
口口口口 |①---|
①④②③ |②---|
口口口口 |③---|
④②④② |④---|
55
口⑧①口 |①-②-|
⑥口口③ |③-④-|
④口口⑤ |⑤-⑥-|
口②⑦口 |⑦-⑧-|
56
口口口口 |①--②|
口②①口 |--③-|
口②①口
口口③口

口④⑤口
口⑥⑦口
口⑧⑨口 |--④⑤|
口口口口 |⑥⑦⑧⑨|

accuracy: 99.5%
最終更新:2023年03月11日 13:57