アットウィキロゴ
うまるん体操
妹S

BASIC

Level: 3
BPM: 170
Notes: 191

1
口口口口 |----|
口口口口 |----|
口口口口 |----|
口口口口 |----|
2
口口口口 |----|
口口口口 |----|
口口口口 |----|
口口口口 |----|
3
口口口口 |①---|
口口口口 |----|
口口口口 |②---|
口②①口 |----|
4
口口口口 |①---|
口口口口 |----|
口②①口 |②---|
口口口口 |----|
5
口口口口 |①---|
口②①口 |----|
口口口口 |②---|
口口口口 |----|
6
口口口口 |----|
口口口口 |----|
口口口口 |----|
口口口口 |----|
7
口口①② |①---|
口口口口 |----|
口口口口 |②---|
口口口口 |----|
8
口口口口 |①---|
口口①② |----|
口口口口 |②---|
口口口口 |----|
9
②①口口 |①---|
口口口口 |----|
口口口口 |②---|
口口口口 |----|
10
口口口口 |①---|
②①口口 |----|
口口口口 |②---|
口口口口 |----|
11
口口①② |①---|
口口口口 |----|
口口口口 |②---|
口口口口 |----|
12
口口口口 |①---|
口口①② |----|
口口口口 |②---|
口口口口 |----|
13
②①口口 |①---|
口口口口 |----|
口口口口 |②---|
口口口口 |----|
14
口口口口 |①---|
②①口口 |----|
口口口口 |②---|
口口口口 |----|
15
口口口口 |①---|
口②①口 |----|
口口口口 |②---|
口口口口 |----|
16
①口口① |①---|
②口口② |----|
口口口口 |②---|
口口口口 |----|
17
口口口口 |①---|
口口口口 |----|
口②①口 |②---|
口口口口 |----|
18
口口口口 |①---|
①口口① |----|
②口口② |②---|
口口口口 |----|
19
口口口口 |①---|
口口口口 |----|
口口口口 |②---|
口②①口 |----|
20
口口口口 |①---|
口口口口 |----|
①口口① |②---|
②口口② |----|
21
口口口口 |①---|
口口口口 |----|
②口口① |②---|
口口口口 |----|
22
口③③口 |①---|
口②②口 |②---|
口①①口 |③---|
口口口口 |----|
23
口口口口 |----|
口口口口 |----|
口口①① |①---|
口口口口 |----|
24
口口口口 |----|
口口口口 |----|
①①口口 |①---|
口口口口 |----|
25
口口口口 |①---|
口口口口 |----|
口②②口 |②---|
口①①口 |----|
26
口②口① |①---|
口①口② |----|
口口口口 |②---|
口口口口 |----|
27
口口口口 |----|
口口①口 |----|
口①口口 |①---|
口口口口 |----|
28
口口口口 |----|
口①口口 |----|
口口①口 |①---|
口口口口 |----|
29
口口口口 |①---|
口②①口 |----|
口①②口 |②---|
口口口口 |----|
30
口②②口 |①---|
口口①口 |----|
口①口口 |②---|
口口口口 |----|
31
口口口口 |①---|
口口口口 |--②-|
③口口口 |③---|
②口①口 |----|
32
口口口口 |①---|
③口口口 |--②-|
②口①口 |③---|
口口口口 |----|
33
③口口口 |①---|
②口①口 |--②-|
口口口口 |③---|
口口口口 |----|
34
口口①口 |①---|
口口口口 |----|
口②③口 |②---|
口口口口 |③---|
35
口①口口 |----|
口口②口 |----|
口口口口 |①---|
口口口口 |②---|
36
口口①口 |----|
口②口口 |----|
口口口口 |①---|
口口口口 |②---|
37
口口③口 |----|
口口②口 |①---|
口口①口 |②---|
口口口口 |③---|
38
口①口口 |①---|
口②口口 |②---|
口③口口 |③---|
口④口口 |④---|
39
口口口① |①---|
口口②口 |----|
口口口口 |②---|
口口口口 |----|
40
口口口口 |①---|
①口口口 |----|
口②口口 |②---|
口口口口 |----|
41
口口口口 |①---|
口口口口 |----|
口口口① |②---|
口口②口 |----|
42
①口口① |①---|
口②②口 |----|
口口口口 |②---|
口③③口 |③---|
43
④口③③ |①---|
②②口口 |②---|
口口①① |③---|
口口口口 |④---|
44
口口口口 |①---|
口③①口 |②---|
口④②口 |③---|
口口口口 |④---|
45
口口口口 |①---|
④口口② |②---|
口口口口 |③---|
口③①口 |④---|
46
口口口口 |①---|
口口口口 |②---|
②口口① |③---|
③④④③ |④---|
47
③③口④ |①---|
口口②② |②---|
①①口口 |③---|
口口口口 |④---|
48
口口口口 |①---|
口①③口 |②---|
口②④口 |③---|
口口口口 |④---|
49
口口口口 |①---|
②口口④ |②---|
口口口口 |③---|
口①③口 |④---|
50
口口口口 |①---|
口①①口 |②---|
口口口口
口②②口

口口口口
口④口④
③口③口 |③---|
口口口口 |④---|
51
①①①① |①---|
口口②口 |----|
口口口口 |②---|
口口口口 |----|
52
口口口口 |①---|
口①口口 |----|
口③口口 |②---|
口口②口 |③---|
53
口②②口 |①---|
①③③① |--②-|
口④④口 |--③-|
口口口口 |--④-|
54
口口口口 |----|
口口口口 |----|
口口口口 |----|
口口口口 |----|
55
口口口口 |①---|
①口口② |----|
②口口① |②---|
口口口口 |----|
56
口口口口 |①---|
①口口口 |----|
口③③① |②---|
口②②口 |③---|
57
①①①① |①---|
口口口口 |----|
口口口口 |----|
口口口口 |----|
58
口口口口 |----|
口口口口 |----|
口口口口 |----|
口口口口 |----|
59
口口①② |①---|
口口口口 |----|
口口口口 |②---|
口口口口 |----|
60
口口口口 |①---|
口口①② |----|
口口口口 |②---|
口口口口 |----|
61
②①口口 |①---|
口口口口 |----|
口口口口 |②---|
口口口口 |----|
62
口③③口 |①---|
②①口口 |----|
口口口口 |②---|
口口口口 |③---|

accuracy: 99.5%
最終更新:2023年06月01日 01:43