アットウィキロゴ
うまるん体操
妹S

ADVANCED

Level: 6
BPM: 170
Notes: 344

1
口口口口 |----|
口口口口 |----|
口口口口 |----|
口口口口 |----|
2
口口口口 |----|
口口口口 |----|
口口口口 |----|
口口口口 |----|
3
口口口口 |①---|
口口口口 |②---|
④口口② |③---|
③口口① |④---|
4
口口口口 |①---|
口口口口 |②---|
口④②口 |③---|
口③①口 |④---|
5
④口口② |①---|
③口口① |②---|
口口口口 |③---|
口口口口 |④---|
6
口口①① |①---|
③口口③ |----|
口②②口 |②---|
口口口口 |③---|
7
口口口口 |①---|
口口口口 |②---|
口③口④ |③---|
②口①口 |④---|
8
口③口④ |①---|
②口①口 |②---|
口口口口 |③---|
口口口口 |④---|
9
口口口口 |①---|
口口口口 |②---|
④口③口 |③---|
口①口② |④---|
10
④口③口 |①---|
口①口② |②---|
口口口口 |③---|
口口口口 |④---|
11
口口口口 |①---|
口口口口 |②---|
口③口④ |③---|
②口①口 |④---|
12
口③口④ |①---|
②口①口 |②---|
口口口口 |③---|
口口口口 |④---|
13
口口口口 |①---|
口口口口 |②---|
④口③口 |③---|
口①口② |④---|
14
④口口④ |①---|
口①口② |②---|
口口口口 |③---|
口③③口 |④---|
15
口口口口 |①-②-|
④③②① |③-④-|
口⑤⑥⑦ |--⑤-|
口口口口 |⑥-⑦-|
16
口口口口 |--①-|
口口口口 |②-③-|
④⑤⑥口 |④-⑤-|
③②①口 |⑥---|
17
口口口口 |①-②-|
④③②① |③-④-|
口⑤⑥⑦ |--⑤-|
口口口口 |⑥-⑦-|
18
④⑤⑥口 |--①-|
③②①口 |②-③-|
口口口口 |④-⑤-|
口口口口 |⑥---|
19
口口口口 |①-②-|
④③②① |③-④-|
口⑤⑥⑦ |--⑤-|
口口口口 |⑥-⑦-|
20
口口口口 |--①-|
口口口口 |②-③-|
④⑤⑥口 |④-⑤-|
③②①口 |⑥---|
21
口口口口 |①-②-|
④③②① |③-④-|
口⑤⑥⑦ |--⑤-|
口口口口 |⑥-⑦-|
22
口口口⑦ |--①-|
③②①⑥ |②-③-|
口④口⑤ |④-⑤-|
口口口口 |⑥-⑦-|
23
口口口口 |--①-|
口口口③ |----|
②②②② |②---|
口①口口 |--③-|
24
③口④② |①-②-|
①⑤⑤口 |③-④-|
口口口口 |⑤---|
口⑥⑥口 |⑥---|
25
口口口口 |①---|
口②②口 |----|
②①①② |②---|
①口口① |----|
26
④口口③ |①---|
①③④② |②---|
口②①口 |③---|
口口口口 |④---|
27
⑤⑤⑤⑤ |--①-|
口口④口 |--②-|
口②口③ |③--④|
①口口口 |--⑤-|
28
口口口口 |--①-|
④口口③ |②-③-|
口②⑤口 |④-⑤-|
口⑥①口 |⑥---|
29
③①口① |①---|
口口口口 |②---|
口口③口 |③---|
口④②口 |④---|
30
②口口① |①---|
③③③③ |②---|
口①②口 |③---|
口口口口 |----|
31
④口③口 |----|
口②口口 |①-②-|
口口①口 |③---|
口口口口 |④---|
32
口口口口 |①---|
口口口① |②---|
②口口口 |③---|
④口口③ |④---|
33
口口口口 |①---|
口口口口 |----|
口①①口
口口口口

口口②口
口③口口
口口④口 |--②-|
口口口口 |③-④-|
34
①②口口 |----|
口口口口 |----|
口口口口 |①---|
口口口口 |②---|
35
口口口口 |----|
①口口口 |--①-|
②④口口 |②---|
口③口口 |③-④-|
36
口口②① |----|
口口口口 |----|
口口口口 |①---|
口口口口 |②---|
37
口口口口 |----|
口③口口 |①---|
口口②口 |②---|
口口口① |③---|
38
口口口① |①---|
口口②口 |②---|
口③口口 |③---|
④口口口 |④---|
39
口口口口 |①---|
④③②① |②---|
口口口口 |③---|
口口口口 |④---|
40
口口口口 |①---|
口口口口 |②---|
①②③④ |③---|
口口口口 |④---|
41
口口口口 |①---|
口口口口 |②---|
口口口口 |③---|
④③②① |④---|
42
①口口① |①---|
口口口口 |----|
③②②③ |②---|
口口口口 |③---|
43
①②口⑤ |①---|
①②口⑤ |②---|
口③口口 |③---|
口③④口 |④-⑤-|
44
③②①口 |--①-|
③②①口 |--②-|
口口口口 |--③-|
口④④口 |--④-|
45
⑤口④④ |①--②|
口③③口 |--③-|
①①口② |④--⑤|
口⑥⑥口 |--⑥-|
46
口口④④ |--①-|
②口口① |②---|
②④口① |③---|
③口口③ |④---|
47
①②口口 |①---|
①②口口 |②---|
口口口口
口口口口

口口口口
⑤口④口
口③口口 |③---|
⑤③④口 |④-⑤-|
48
口①口① |--①-|
口③口口 |--②-|
口口口口 |③---|
口②③口 |----|
49
②②①① |①---|
②②①① |--②-|
口口口口 |----|
口③③口 |--③-|
50
①口口① |--①-|
口③③口 |②-③-|
②⑤⑤② |④---|
④口口④ |⑤---|
51
①①①① |①---|
口口口口 |----|
⑤口口口 |②-③-|
⑤③④② |④-⑤-|
52
①口口口 |----|
口②口口 |----|
口口②口 |①---|
口口口① |②---|
53
口②③① |①---|
口口口口 |②-③-|
口口口口
①③②口

口口口⑤
口口④口
口④口口 |--④-|
⑤口口口 |--⑤-|
54
口口口口 |----|
口口口口 |----|
口口口口 |----|
口口口① |①---|
55
④④①① |①--②|
口口②⑤ |--③-|
口①④口 |④---|
口③口口 |--⑤-|
56
口④口⑤ |①--②|
①口②口 |--③-|
口③口口 |④---|
口⑤④口 |⑤---|
57
口口口口 |①---|
①口口① |----|
①口口① |----|
口口口口 |----|
58
口口口口 |----|
口口口口 |----|
口口口口 |----|
口口口口 |----|
59
口口口口 |①---|
口口口口 |②---|
口③口④ |③---|
②口①口 |④---|
60
口③口④ |①---|
②口①口 |②---|
口口口口 |③---|
口口口口 |④---|
61
口口口口 |①---|
口口口口 |②---|
④口③口 |③---|
口①口② |④---|
62
口口口口 |①---|
口①口② |②---|
口口口口
口口口口

④口口口
口④口口
口口④口 |③---|
口③③④ |④---|

accuracy: 99.5%
最終更新:2023年06月01日 01:51