アットウィキロゴ
うまるん体操
妹S

EXTREME

Level: 8
BPM: 170
Notes: 506

1
口口口口 |----|
口口口口 |----|
口口口口 |----|
口口口口 |----|
2
口口口口 |----|
口口口口 |----|
口口口口 |----|
口口口口 |----|
3
口口口口 |①---|
口口口口 |②---|
④③④③ |③---|
①②①② |④---|
4
④③④③ |①---|
①②①② |②---|
口口口口 |③---|
口口口口 |④---|
5
口口口口 |①---|
口口口口 |②---|
④③④③ |③---|
①②①② |④---|
6
口口①① |①---|
口口①① |----|
口口口口
口口口口

口口口③
口口口③
口口口口 |②---|
②口口口 |③---|
7
口口口口 |①-②③|
口口口口 |④---|
口口口①
④③②口

口口口口
⑤口口口
口⑥⑦⑧ |⑤-⑥⑦|
口口口口 |⑧---|
8
②③④⑥ |①-②③|
口①⑤口 |④-⑤-|
口⑨⑧⑦ |⑥-⑦⑧|
口口口口 |⑨---|
9
口口口口 |①-②③|
口口口口 |④---|
①口口口
口②③④

口口口口
口口口⑤
⑧⑦⑥口 |⑤-⑥⑦|
口口口口 |⑧---|
10
⑥④③② |①-②③|
口⑤①口 |④-⑤-|
⑦口⑧口 |⑥-⑦-|
口口口口 |⑧---|
11
口口口口 |①-②③|
口口口口 |④---|
口口口①
④③②口

口口口口
⑤口口口
口⑥⑦⑧ |⑤-⑥⑦|
口口口口 |⑧---|
12
②③④⑥ |①-②③|
口①⑤口 |④-⑤-|
口⑨⑧⑦ |⑥-⑦⑧|
口口口口 |⑨---|
13
口口口口 |①-②③|
口口口口 |④---|
①口口口
口②③④

口口口口
口口口⑤
⑧⑦⑥口 |⑤-⑥⑦|
口口口口 |⑧---|
14
⑧④③② |①-②③|
⑦⑧①口 |④-⑤-|
口口⑧口 |⑥-⑦-|
口⑤⑥⑧ |⑧---|
15
口口①口 |①-②-|
④口①⑦ |③-④-|
口②⑥口 |--⑤-|
③⑤口口 |⑥-⑦-|
16
③口口口 |--①-|
②口口口 |②-③-|
①口口口 |④-⑤-|
口⑥⑤④ |⑥---|
17
口口①口 |①-②-|
④口①⑦ |③-④-|
口②⑥口 |--⑤-|
③⑤口口 |⑥-⑦-|
18
口⑥口口 |--①-|
口⑥口口 |②-③-|
口②⑤口 |④-⑤-|
③口①④ |⑥---|
19
口口①口 |①-②-|
④口①⑦ |③-④-|
口②⑥口 |--⑤-|
③⑤口口 |⑥-⑦-|
20
③口口口 |--①-|
②口口口 |②-③-|
①口口口 |④-⑤-|
口⑥⑤④ |⑥---|
21
口口①口 |①-②-|
④口①⑦ |③-④-|
口②⑥口 |--⑤-|
③⑤口口 |⑥-⑦-|
22
口口口口 |--①-|
口⑤口⑦ |②-③-|
④②⑥口 |④-⑤-|
③口①口 |⑥-⑦-|
23
口②①③ |--①②|
口口口口 |③---|
口口口口
口口口口

⑤口⑤口
⑤⑤⑤口
⑤⑤⑤口 |④---|
④④④④ |--⑤-|
24
③口口③ |----|
口口口① |①---|
口口口① |②---|
口②②口 |③---|
25
口②②口 |①---|
②口口② |----|
口①①口 |②---|
①口口① |----|
26
口口口口 |①-②-|
④口③口 |③-④-|
②④①③
口②口①

口⑧口⑦
口⑥口⑤
⑧口⑦口 |⑤-⑥-|
⑥口⑤口 |⑦-⑧-|
27
⑤⑦⑦⑤ |--①②|
⑦④④⑦ |③-④-|
口②口③ |⑤--⑥|
口⑥⑥① |--⑦-|
28
口口口口 |--①-|
⑥②③⑤ |②-③-|
口④①口 |④-⑤-|
口口口口 |⑥---|
29
口①③① |①-②-|
口口③口 |③---|
口口口口
口②②口

④⑥口口
口⑥口口
口口④④ |④-⑤-|
⑤口口⑤ |⑥---|
30
③⑤⑤① |①-②-|
⑤口口⑤ |③-④-|
①①③③ |⑤---|
口④②口 |----|
31
口口口④ |----|
口③口口 |①-②-|
口口②口 |③---|
口①口口 |④---|
32
①口口口 |①---|
③口口② |②---|
口口口④ |③---|
口口口口 |④---|
33
口口口口 |①---|
口①口口 |----|
口①口口
口口口口

口口口口
口口②口
口③口口 |--②-|
口口④口 |③-④-|
34
口口口口 |----|
口口口口 |----|
①②口口 |①---|
①②口口 |②---|
35
③④口口 |----|
②①口口 |--①-|
口口口口 |②---|
口口口口 |③-④-|
36
口口口口 |----|
口口口口 |----|
口口②① |①---|
口口②① |②---|
37
口口口① |----|
口口②口 |①---|
口③口口 |②---|
口口口口 |③---|
38
口口口口 |①---|
口④口口 |②---|
口口③口 |③---|
口②①口 |④---|
39
④③②① |①-②-|
⑤⑥⑦⑧ |③-④-|
口口口口 |⑤-⑥-|
口口口口 |⑦-⑧-|
40
口口口口 |①-②-|
口口口口 |③-④-|
④③②① |⑤-⑥-|
⑤⑥⑦⑧ |⑦-⑧-|
41
口⑧口口 |①-②-|
口口口口 |③-④-|
④③②① |⑤-⑥-|
⑤⑥⑦口 |⑦--⑧|
42
③口③口 |①②--|
口口①口 |----|
口②口口 |③---|
④口④口 |④---|
43
②②口① |①---|
口口口① |②---|
口口口口
口①口②

口口③⑤
⑤口口口
③④口口 |③---|
③口④口 |④-⑤-|
44
④④口口 |①-②-|
口口②口 |③-④-|
③口口口
口①口②

口口口口
口⑥⑧⑦
口口口口 |⑤-⑥-|
⑥⑧⑤口 |⑦-⑧-|
45
⑤④①② |①--②|
口③口口 |--③-|
⑤④①② |④--⑤|
口⑥③口 |--⑥-|
46
口③②口 |--①-|
①⑤口⑤ |②-③-|
口②⑤③ |④---|
④⑤①④ |⑤---|
47
①口②② |①---|
①口口口 |②---|
口口口口
②口①口

⑤③口口
口口口⑤
口口④③ |③---|
口④口③ |④-⑤-|
48
口④口③ |①-②-|
口②口口 |③-④-|
⑥⑤⑤⑥ |⑤---|
②⑦①④ |⑥-⑦-|
49
②②①① |①--②|
②②①① |--③-|
口③③④ |----|
口口口口 |--④-|
50
③⑤⑤② |--①-|
⑤④④⑤ |②-③-|
口④④口 |④---|
口①口口 |⑤---|
51
口口口口 |①---|
口口口口 |----|
①口口①
①①①①

⑤口口②
⑤口口口
口③口口 |②-③-|
口口④口 |④-⑤-|
52
口口③口 |----|
口口口① |----|
②口口① |①---|
口口口口 |②-③-|
53
②口口④ |①---|
②⑤⑤④ |②-③-|
⑤⑤⑤⑤ |--④-|
①①③③ |--⑤-|
54
口口口口 |----|
口口口口 |----|
口口口口 |----|
口①口口 |①---|
55
①②口口 |①--②|
①口③口 |--③-|
口口①口
口口①口

口口口④
口口口④
口④⑤口 |④---|
口④口口 |--⑤-|
56
口口口口 |①--②|
①④④④ |--③-|
③口口② |④---|
口⑤⑤⑤ |⑤---|
57
①①①① |①---|
口口口口 |----|
口①①口 |----|
口口口口 |----|
58
⑥④④⑦ |--①②|
⑥口③⑦ |③-④-|
口②口口 |⑤-⑥-|
⑤口①⑤ |⑦---|
59
口口口口 |①-②③|
口口口口 |④---|
①口口口
口②③④

口口口口
口口口⑤
⑧⑦⑥口 |⑤-⑥⑦|
口口口口 |⑧---|
60
⑥④③② |①-②③|
口⑤①口 |④-⑤-|
⑦⑧⑨口 |⑥-⑦⑧|
口口口口 |⑨---|
61
口口口口 |①-②③|
口口口口 |④---|
口口口①
④③②口

口口口口
⑤口口口
口⑥⑦⑧ |⑤-⑥⑦|
口口口口 |⑧---|
62
口②③④ |①-②③|
口①口口 |④-⑤-|
口口口口
口⑤口口

⑧口口口
⑦⑧口口
口口⑧口 |⑥-⑦-|
口口⑥⑧ |⑧---|

accuracy: 99.5%
最終更新:2023年06月01日 02:18