アットウィキロゴ
にめんせい☆ウラオモテライフ!
土間うまる (CV.田中あいみ)

BASIC

Level: 3
BPM: 170-225
Notes: 231

1
口口口口 |(170)----|
口口口口 |----|
口口口口 |----|
口口口口 |----|
2
口口口口 |----|
口口口口 |----|
口口口口 |----|
口口口口 |----|
3
①口口口 |①---|
口口口口 |----|
口口口口 |----|
口口口口 |----|
4
口口口① |①---|
口口口口 |----|
口口口口 |----|
口口口口 |----|
5
口口口口 |①---|
①口口口 |----|
口口口口 |----|
口口口口 |----|
6
口口口口 |①---|
口口口① |----|
口口口口 |----|
口口口口 |----|
7
口口口口 |①---|
口口口口 |----|
①口口口 |----|
口口口口 |----|
8
口口口口 |①---|
口口口口 |----|
口口口① |----|
口口口口 |----|
9
口口口口 |①---|
口口口口 |----|
口口口口 |----|
①口口口 |----|
10
口口口口 |①---|
口②②口 |----|
口①①口 |②---|
口口口口 |----|
11
口口口口 |①---|
①口口① |②---|
②口口② |③---|
③口口③ |----|
12
口口口口 |①---|
口口口口 |②---|
口③④口 |③---|
口①②口 |④---|
13
口口口口 |①---|
①②③④ |②---|
口口口口 |③---|
口口口口 |④---|
14
口①②口 |①---|
口③④口 |②---|
口口口口 |③---|
口口口口 |④---|
15
口口口口 |①---|
口口口口 |②---|
①②③④ |③---|
口口口口 |④---|
16
口口口口 |①---|
口口口口 |②---|
口③④口 |③---|
口①②口 |④---|
17
口口口口 |①---|
①②③④ |②---|
口口口口 |③---|
口口口口 |④---|
18
口①②口 |①---|
口③④口 |②---|
口口口口 |③---|
口口口口 |④---|
19
①口口① |①---|
②口口② |②---|
③口口③ |(225)③---|
口口口口 |----|
20
口口口口 |----|
口口口口 |----|
口口口口 |----|
口口口口 |----|
21
口口口口 |①---|
口口口口 |----|
口口口口 |----|
口①口口 |----|
22
口口口口 |①---|
口口口口 |----|
口①口口 |----|
口口口口 |----|
23
口口口口 |①---|
口①口口 |----|
口口口口 |----|
口口口口 |----|
24
口①口口 |①---|
口口口口 |----|
口口口口 |----|
口口口口 |----|
25
口口①口 |①---|
口口口口 |----|
口口口口 |----|
口口口口 |----|
26
口口口口 |①---|
口口①口 |----|
口口口口 |----|
口口口口 |----|
27
口口口口 |①---|
口口口口 |----|
口口①口 |----|
口口口口 |----|
28
口口口口 |①---|
口口口口 |----|
口口口口 |----|
口口①口 |----|
29
口口口口 |(170)①---|
口②②口 |----|
口①①口 |②---|
口口口口 |----|
30
①②③④ |①---|
口口口口 |②---|
口口口口 |③---|
口口口口 |④---|
31
口口口口 |①---|
④③②① |②---|
口口口口 |③---|
口口口口 |④---|
32
口口口口 |①---|
口口口口 |②---|
①②③④ |③---|
口口口口 |④---|
33
口口口口 |①---|
口①①口 |----|
口口口口 |----|
口口口口 |----|
34
④③②① |①---|
口口口口 |②---|
口口口口 |③---|
口口口口 |④---|
35
口口口口 |①---|
①②③④ |②---|
口口口口 |③---|
口口口口 |④---|
36
口口口口 |①---|
口口口口 |②---|
④③②① |③---|
口口口口 |④---|
37
口口口口 |①---|
②①①② |----|
口口口口 |②---|
口口口口 |----|
38
口口④口 |①---|
口口③口 |②---|
口口②口 |③---|
口口①口 |④---|
39
口①口口 |①---|
口②口口 |②---|
口③口口 |③---|
口④口口 |④---|
40
口口④口 |①---|
口口③口 |②---|
口口②口 |③---|
口口①口 |④---|
41
口①口口 |①---|
口②口口 |②---|
口③口口 |③---|
口④口口 |④---|
42
口②②口 |①---|
口①①口 |----|
口口口口 |②---|
口口口口 |----|
43
②口口② |①---|
①口口① |----|
口口口口 |②---|
口口口口 |----|
44
口口口口 |①---|
①②③④ |②---|
口口口口 |③---|
口口口口 |④---|
45
③③③③ |①---|
口②②口 |②---|
口①①口 |③---|
口口口口 |----|
46
口口口口 |①---|
口口④④ |②---|
口①②③ |③---|
口口口口 |④---|
47
口口口口 |①---|
④④口口 |②---|
③②①口 |③---|
口口口口 |④---|
48
口①②口 |①---|
口③④口 |②---|
口口口口 |③---|
口口口口 |④---|
49
①口口① |①---|
②口口② |②---|
③口口③ |③---|
④口口④ |④---|
50
口④口口 |①---|
口③口口 |②---|
口②口口 |③---|
口①口口 |④---|
51
口口①口 |①---|
口口②口 |②---|
口口③口 |③---|
口口④口 |④---|
52
口口口口 |①---|
口口口口 |②---|
①②③④ |③---|
口口口口 |④---|
53
④④④④ |①---|
①②③口 |②---|
口口口口 |③---|
口口口口 |④---|
54
口口口口 |①---|
口口④④ |②---|
口①②③ |③---|
口口口口 |④---|
55
口口口口 |①---|
④④口口 |②---|
③②①口 |③---|
口口口口 |④---|
56
②①①② |①---|
口口口口 |----|
口口口口 |②---|
口口口口 |----|
57
口口口口 |①---|
口①②口 |②---|
口③④口 |③---|
口口口口 |④---|
58
口①①口 |①---|
口②口口 |----|
口口口口 |②---|
口口口口 |----|
59
口口口口 |①---|
口口口口 |----|
口口①口 |②---|
口②口口 |----|
60
口口口口 |①---|
②口口② |----|
①口口① |②---|
口口口口 |----|
61
口口口口 |①---|
口①①口 |②---|
口②②口
口口口口

口口口口
④④④④
口口口口 |③---|
口③③口 |④---|
62
①口口① |①---|
②口口② |----|
口口口口 |②---|
口口口口 |----|
63
口口口口 |①---|
口口口口 |----|
①口口① |②---|
②口口② |----|
64
口口口口 |①---|
口③④口 |②---|
口①②口 |③---|
口口口口 |④---|
65
口口口口 |①---|
①口口① |----|
②口口② |②---|
口口口口 |----|
66
③③③③ |①---|
口②②口 |②---|
口①①口 |③---|
口口口口 |----|

accuracy: 99.5%
最終更新:2023年06月15日 07:46