アットウィキロゴ
にめんせい☆ウラオモテライフ!
土間うまる (CV.田中あいみ)

ADVANCED

Level: 7
BPM: 170-225
Notes: 452

1
口口口口 |(170)----|
口口口口 |----|
口口口口 |----|
口口口口 |----|
2
口口口口 |----|
口口口口 |----|
口口口口 |----|
口①口口 |--①-|
3
口口口口 |①--②|
口口③口 |--③-|
口②口口
口口①口

④④口口
口口口口
口口口口 |④---|
口口⑤口 |--⑤-|
4
口口④④ |①--②|
口③口口 |--③-|
口口②口 |④---|
口①口口 |----|
5
口口口④ |--①-|
口口口⑤ |②-③-|
①②③⑥ |④--⑤|
口口口口 |--⑥-|
6
③口口口 |①--②|
②④④口 |--③-|
①口口口 |④---|
口口口口 |----|
7
口口口口 |①--②|
①口口④ |--③-|
口②⑤口 |④--⑤|
口⑥③口 |--⑥-|
8
口口口口 |①--②|
①口④④ |--③-|
口②口口 |④---|
口口③口 |----|
9
口③④④ |①--②|
②口口口 |--③-|
口①口口 |④---|
口口⑤⑤ |⑤---|
10
口④⑤⑥ |①-②-|
①②③口 |③---|
口③②① |④-⑤-|
⑥⑤④口 |⑥---|
11
⑤⑤⑤⑤ |①-②-|
①口口② |③-④-|
①③③② |⑤---|
口④④口 |----|
12
口口口口 |①---|
①口口③ |②---|
口口口口 |③---|
②口口④ |④---|
13
⑤⑥⑦⑧ |①②-③|
口口口口 |④-⑤-|
口③④口 |⑥-⑦-|
口①②口 |⑧---|
14
口口口口 |①---|
口①③口 |②---|
口口口口 |③---|
口②④口 |④---|
15
⑤⑥⑦⑧ |①②-③|
口口口口 |④-⑤-|
③口口④ |⑥-⑦-|
①口口② |⑧---|
16
口口口口 |①---|
①口口③ |②---|
口口口口 |③---|
②口口④ |④---|
17
⑤⑥⑦⑧ |①②-③|
口口口口 |④-⑤-|
口③④口 |⑥-⑦-|
口①②口 |⑧---|
18
口口口口 |①--②|
⑥⑤④口 |--③-|
口①②③ |④--⑤|
口口口口 |--⑥-|
19
口④④口 |①--②|
口口口口 |--③-|
③①①③ |(225)④---|
口②②口 |----|
20
口口口口 |----|
①②③④ |①②③④|
口口口口 |----|
口口口口 |----|
21
口口口口 |----|
口口口口 |①---|
口①②口 |②---|
口③口口 |③---|
22
口④口口 |①---|
③口口口 |②---③-|
②口口口 |----|
口口①口 |④---|
23
口口①口 |①---|
口②③口 |②---|
口④口口 |③---|
口口口口 |④---|
24
口口口口 |①---|
④④口口 |②---|
③口①口 |----③-|
口②口口 |----④-|
25
口口口口 |----|
口口口口 |①---|
口①②口 |②---|
口③口口 |③---|
26
口口③口 |①---②-|
口④口② |----③-|
口口口① |----|
口口口口 |④---|
27
口口口口 |①---|
⑤口①⑤ |②---|
④②③口 |③---|
口口口口 |④---⑤-|
28
口口口口 |----|
口口口口 |----|
口口口口 |----|
口口口口 |----|
29
口口口口 |(170)①---|
①口口② |----|
①口口② |②---|
口口口口 |----|
30
口口口口 |①-②-|
⑧口口口 |③-④-|
口⑦⑥⑤ |⑤-⑥-|
①②③④ |⑦-⑧-|
31
口⑥⑥口 |--①-|
口口口口 |②-③-|
口口⑤④ |④-⑤-|
①②③口 |⑥---|
32
口口口口 |①---|
口①口口 |②---|
⑥⑤④③ |③-④-|
口②口口 |⑤-⑥-|
33
口口口口 |----|
口口口口 |----|
口口口口 |----|
口口口口 |----|
34
口口口口 |①-②-|
口口口⑧ |③-④-|
⑤⑥⑦口 |⑤-⑥-|
④③②① |⑦-⑧-|
35
口口口口 |--①-|
④⑥⑦⑤ |②-③-|
④⑥⑦⑤ |④-⑤-|
口③②① |⑥-⑦-|
36
口口口口 |--①-|
口⑦口口 |②-③-|
口⑥⑤④ |④-⑤-|
口①②③ |⑥-⑦-|
37
②口①② |①--②|
口口口口 |----|
③口口③ |③---|
口口口口 |----|
38
口口④口 |①-②-|
口③口口 |③-④-|
口口②口
口①口口

⑤口口口
⑥口口口
⑦口⑧⑧ |⑤-⑥-|
口口口口 |⑦-⑧-|
39
②②②② |--①-|
口①①① |--②-|
口口口口 |----|
口口口口 |----|
40
⑤口口口 |①-②-|
⑥①④口 |③-④-|
⑦③②口 |--⑤-|
口口口口 |⑥-⑦-|
41
③③口口 |----|
口口口口 |--①-|
口①②口 |②---|
口口口口 |③---|
42
口⑦⑦① |①-②-|
⑦口②⑦ |③-④-|
口⑥⑥③ |⑤-⑥-|
口口④⑤ |⑦---|
43
①口口口 |①-②-|
口②口口 |③-④-|
③口口口
口④口口

⑧口口⑧
⑦口口⑦
口⑥⑥口 |⑤-⑥-|
⑤口口口 |⑦-⑧-|
44
口①①口 |①---|
口②③口 |②-③-|
口④⑤口 |④-⑤-|
口⑥⑦口 |⑥-⑦-|
45
②①①口 |①--②|
口口口口 |--③-|
口口口口
③口口口

口⑤⑤④
⑤④④⑤
④口口口 |④---|
口口口口 |⑤---|
46
⑥⑥口⑦ |①--②|
⑤⑤④④ |--③-|
③①①⑦ |④-⑤-|
口②口口 |⑥-⑦-|
47
⑥⑥①口 |①--②|
⑤⑤④④ |--③-|
②口①口 |④-⑤-|
口③口口 |⑥---|
48
口口⑤⑤ |--①-|
口⑥口口 |②-③-|
①②③口 |④--⑤|
口口④④ |--⑥-|
49
①口口口 |①--②|
口口口口 |--③-|
口②②口
口口③口

⑤⑤⑤⑤
口口口口
口口口④ |④---|
口口口口 |⑤---|
50
口口口口 |①-②-|
口①②口 |③-④-|
口③④口 |⑤-⑥-|
⑦⑤⑥⑧ |⑦-⑧-|
51
口口口口 |①-②-|
③⑤⑤④ |③-④-|
①⑤⑤② |⑤---|
口口口口 |----|
52
①①④④ |①--②|
口口③口 |--③-|
口⑤⑥口 |④-⑤⑥|
口②口口 |----|
53
口口口口 |①--②|
①口口① |--③-|
②口口②
③口口③

口⑤⑤口
⑤口口⑤
口口口口 |④---|
口④④口 |⑤---|
54
⑥⑥口⑦ |①--②|
⑤⑤④④ |--③-|
②①①⑦ |④-⑤-|
口③口口 |⑥-⑦-|
55
⑥⑥①口 |①--②|
⑤⑤④④ |--③-|
②口①口 |④-⑤-|
口③口口 |⑥---|
56
⑥⑥⑤⑤ |--①-|
口口口口 |②-③-|
①③口② |④--⑤|
口口④④ |--⑥-|
57
④④③③ |①---|
②口口① |②---|
①口口② |③---|
口口口口 |④---|
58
④⑤⑥口 |①---|
④⑤⑥口 |②---|
①②③① |③-④-|
口①①口 |⑤-⑥-|
59
口口口口 |----|
口口口口 |①---|
③①②口 |②---|
口④④口 |③-④-|
60
口③①口 |①---|
③口口① |--②-|
④口口④ |③---|
②口口② |--④-|
61
④③③④ |①--②|
④②②④ |--③-|
口①①口 |④---|
口口口口 |----|
62
口⑥⑤④ |①--②|
口⑥⑤④ |--③-|
①②③口 |④--⑤|
①②③口 |--⑥-|
63
口口④④ |①--②|
口口口口 |--③-|
①②③口 |④---|
①②③口 |----|
64
口⑤⑤口 |①-②-|
口②口④ |③-④-|
①口③口 |⑤---|
口⑥⑥口 |⑥---|
65
口④⑤⑥ |①-②-|
①②③口 |③---|
口③②① |④-⑤-|
⑥⑤④口 |⑥---|
66
⑤⑤⑤⑤ |①-②-|
①口口② |③-④-|
①③③② |⑤---|
口④④口 |----|

accuracy: 99.5%
最終更新:2023年06月15日 07:46