アットウィキロゴ
にめんせい☆ウラオモテライフ!
土間うまる (CV.田中あいみ)

EXTREME

Level: 9.1
BPM: 170-225
Notes: 645

1
口口口口 |(170)----|
口口口口 |----|
口口口口 |----|
口口口口 |----|
2
口口口口 |----|
口口口口 |----|
口口口① |----|
口口口口 |--①-|
3
口口口口 |①--②|
②口口口 |--③-|
口①③口
口口口口

⑥口④④
口⑥口口
⑤⑦口口 |④-⑤-|
口⑤口口 |⑥-⑦-|
4
口口口口 |①--②|
口口①口 |--③-|
③口②口
口口口口

④④口⑥
口口⑥口
口口口⑤ |④-⑤-|
口口⑤口 |⑥---|
5
④口口口 |--①②|
①②口⑤ |③-④-|
⑥③⑦口 |⑤--⑥|
口口口口 |--⑦-|
6
口口口① |①--②|
口②口口 |--③-|
口③口① |④---|
口口④口 |----|
7
口口口口 |①--②|
④④①① |--③-|
⑤⑤②② |④--⑤|
⑥⑥③③ |--⑥-|
8
口④口口 |①--②|
④口①① |--③-|
口口②② |④---|
口口③③ |----|
9
口口⑤⑤ |①--②|
口②②口 |--③-|
口①①口 |④---|
口③④④ |⑤---|
10
口④⑤⑥ |①-②-|
①②③口 |③---|
口③②① |④-⑤-|
⑥⑤④口 |⑥---|
11
①③口口 |①-②-|
②口④口 |③-④-|
口④口②
口口③①

⑦口口⑤
口⑦口口
⑥口口口 |⑤-⑥-|
⑤⑥口口 |⑦---|
12
⑥⑥③③ |①-②-|
⑥口口③ |③---|
口②⑤口 |④-⑤-|
口④①口 |⑥---|
13
⑧⑧⑤口 |①②-③|
口⑥④③ |④-⑤-|
①②⑦口 |⑥-⑦-|
口口口口 |⑧---|
14
⑥⑥③③ |①-②-|
⑥口口③ |③---|
口②⑤口 |④-⑤-|
口④①口 |⑥---|
15
口口⑤口 |①②-③|
口⑥④③ |④-⑤-|
①②⑦口 |⑥-⑦-|
⑧⑧口口 |⑧---|
16
⑥⑥③③ |①-②-|
⑥口口③ |③---|
口②⑤口 |④-⑤-|
口④①口 |⑥---|
17
⑧口⑤口 |①②-③|
⑧⑥④③ |④-⑤-|
①②⑦口 |⑥-⑦-|
口⑩⑨口 |⑧-⑨⑩|
18
口③口⑤ |①--②|
口④②口 |--③-|
口口口口 |④--⑤|
①口⑥口 |--⑥-|
19
④口口④ |①--②|
②口口① |--③-|
③④④③ |(225)④---|
①口口② |----|
20
口口口口 |----|
①②③④ |①②③④|
口口口口 |----|
口口口口 |----|
21
③口口口 |①---|
口④口口 |②---|
②口口① |③---|
口口口口 |④---|
22
口口①口 |①---②-|
口口③口 |③---④-|
口口②④ |----|
口⑤口口 |⑤---|
23
口口口口 |①---|
口口④③ |②---|
①②口口 |③---|
口口口口 |④---|
24
④⑦口⑦ |①---②-|
②口口⑤ |③---④-|
③口①⑥ |----⑤-|
口口口口 |⑥---⑦-|
25
口口③口 |----|
口②口口 |①---|
口口①口 |②---|
口口口口 |③---|
26
①③口口 |①---②-|
口口口④ |----③-|
口②口④ |----|
口口口口 |④---|
27
⑥口⑥口 |①---|
①口④⑤ |②---|
①②口口 |③---④-|
口口③口 |⑤---⑥-|
28
口口口口 |----|
口口口口 |----|
口口口口 |----|
口口口口 |----|
29
①口口② |(170)①---|
①③③② |----|
③口口③ |②---|
①口口② |③---|
30
①口口口 |①-②-|
②口口口 |③-④-|
口③①口
口④口口

⑧⑧口⑤
口⑤⑥口
口口⑦口 |⑤-⑥-|
口口口口 |⑦-⑧-|
31
⑤口③④ |--①-|
④②口⑤ |②-③-|
口①⑥口 |④-⑤-|
口⑥口口 |⑥---|
32
口②②口 |①---|
口①①口 |②---|
③⑥⑤⑥ |③-④-|
口④口⑥ |⑤-⑥-|
33
①②口⑦ |①-②-|
③⑤口口 |③-④-|
④⑥口口 |⑤-⑥-|
口口口口 |⑦---|
34
①口口口 |①-②-|
口④口① |③-④-|
口口②口
口口③口

⑧⑤⑧口
⑦口口口
口⑥口⑤ |⑤-⑥-|
口口口口 |⑦-⑧-|
35
口口⑦① |--①-|
④口②④ |②-③-|
口口③口 |④-⑤-|
⑥①⑤⑥ |⑥-⑦-|
36
①口口口 |--①-|
③②口口 |②-③-|
口口口口
口口口口

⑦口口口
口口口口
⑤口口口 |④-⑤-|
④⑥口口 |⑥-⑦-|
37
口口口① |①--②|
口口②口 |--③-|
口口口口
口口③口

口④④⑤
口口口口
口④④口 |④---|
口口口口 |⑤---|
38
①口口口 |①-②-|
②口口口 |③-④-|
口口口③
口口口④

⑧口口口
口⑦口口
口口⑥口 |⑤-⑥-|
口⑤口口 |⑦-⑧-|
39
⑥①③② |①-②-|
①⑤口③ |③-④-|
口⑥口口 |--⑤-|
⑤④④口 |⑥---|
40
⑤⑦④④ |①-②-|
⑤⑦口③ |③-④-|
口⑥②口 |--⑤-|
口口口① |⑥-⑦-|
41
③③③③ |----|
口口口口 |--①-|
口口口口 |②---|
口①②口 |③---|
42
口口口口 |①-②③|
口口口口 |④-⑤-|
①②③①
口④⑤⑤

口⑦⑦⑥
⑦⑧⑧⑦
⑧口口⑧ |⑥-⑦-|
口口口口 |⑧---|
43
⑦⑨⑧⑥ |①②-③|
口⑨⑧⑤ |④-⑤-|
⑧⑧⑨⑨ |⑥-⑦-|
②①③④ |⑧-⑨-|
44
口口口口 |①-②-|
①口口② |③-④-|
口口口口
③口口④

口口口口
⑦口口⑧
⑤口口⑥ |⑤-⑥-|
口口口口 |⑦-⑧-|
45
④⑤④② |①--②|
④④④⑤ |--③-|
④④④口 |④---|
口①①③ |⑤---|
46
⑥口④① |①--②|
④⑥⑦口 |--③-|
⑤③⑧① |④-⑤-|
②⑤②口 |⑥-⑦⑧|
47
口①口① |①--②|
口口口② |--③-|
口口口口
口③口②

口口④⑥
④口⑥口
口⑦口⑤ |④-⑤-|
口口⑤口 |⑥-⑦-|
48
⑦②⑥⑥ |①-②-|
口③口④ |③-④-|
②口①⑤ |⑤--⑥|
⑥⑥④⑦ |--⑦-|
49
口②口口 |①--②|
③③①② |--③-|
②①③③
口口②口

⑤口④口
口口⑤口
口⑤口口 |④---|
口④口⑤ |⑤---|
50
口口口① |--①-|
③口口② |②-③-|
②口口③
口口口口

⑦④⑤⑦
口口⑥口
口④口口 |④-⑤⑥|
口口口口 |--⑦-|
51
口口口口 |①-②③|
口口口② |--④-|
口④④③
口①①口

⑥口口口
口⑤⑤口
⑦口口口 |⑤-⑥-|
⑤⑧口⑤ |⑦-⑧-|
52
口④①① |①--②|
口口口⑦ |--③-|
口⑤②② |④-⑤⑥|
口⑥③口 |--⑦-|
53
②口③① |①--②|
③口口口 |--③-|
②口①口
口口口口

口⑤口⑤
口⑤⑤⑤
口⑤⑤⑤ |④---|
④④④④ |⑤---|
54
①④②⑥ |①--②|
②⑦⑥⑦ |--③-|
①④口⑤ |④-⑤-|
口③⑤口 |⑥-⑦-|
55
⑥口①④ |①--②|
②⑥口⑦ |--③-|
⑤④①口 |④-⑤-|
②⑤③口 |⑥-⑦-|
56
口口口口 |①-②-|
口口口口 |③-④-|
④③④②
③口②①

⑤⑤⑥⑥
⑤⑤⑥⑥
口口口口 |⑤--⑥|
口⑦⑦口 |--⑦-|
57
④⑤⑦口 |①-②-|
③⑥⑧口 |③-④-|
口⑤⑦② |⑤-⑥-|
口口口① |⑦-⑧-|
58
口口口口 |①---|
①口口① |②---|
口②口口
②①①口

⑤口口③
口⑤④口
口口口⑤ |③-④-|
口口⑥口 |⑤-⑥-|
59
口⑥②口 |①-②-|
⑥口④① |③---|
⑤③口⑦ |④-⑤-|
③⑤⑦口 |⑥-⑦-|
60
①口①口 |①---|
口①口① |②-③-|
③②②口
口③口口

口④口④
④⑥④⑥
口口口口 |④---|
⑤口⑥⑤ |⑤-⑥-|
61
④④①⑤ |①--②|
③口③口 |--③-|
②①②① |④---|
口②口口 |⑤---|
62
口口②口 |①--②|
口①口③ |--③-|
口⑤口口 |④--⑤|
⑥口④口 |--⑥-|
63
①①②② |①--②|
①①②② |--③-|
口④口④ |④---|
口③③口 |----|
64
⑥⑥④⑤ |①-②-|
⑥⑤③② |③-④-|
①③⑤⑥ |⑤---|
⑤④⑥⑥ |⑥---|
65
⑥⑤④口 |①-②-|
口③②① |③---|
①②③口 |④-⑤-|
口④⑤⑥ |⑥---|
66
口④口口 |①-②-|
①口口② |③-④-|
①口口②
口③口口

⑦口⑦⑥
⑦⑦⑦口
⑦⑦⑦口 |⑤-⑥-|
口口⑤⑤ |⑦---|

accuracy: 99.5%
最終更新:2023年06月15日 07:49