アットウィキロゴ
DREAMING-ING!!
ときめきアイドル project

BASIC

Level: 3
BPM: 180
Notes: 177

1
口口口口 |----|
口口口口 |----|
口口口口 |----|
口口口口 |----|
2
口口口口 |----|
口口口口 |----|
口口口口 |----|
口口口口 |----|
3
口口口口 |①---|
口口口口 |----|
口口口口 |②---|
口①②口 |----|
4
口②②口 |①---|
口①①口 |----|
口口口口 |②---|
口口口口 |----|
5
口口口口 |①---|
口口口口 |----|
口口口口 |②---|
口①②口 |----|
6
口②②口 |①---|
口①①口 |----|
口口口口 |②---|
口口口口 |----|
7
①口口口 |①---|
口口口口 |----|
口口口口 |----|
口口口口 |----|
8
口口口① |①---|
口口口口 |----|
口口口口 |----|
口口口口 |----|
9
口口口口 |①---|
①口口口 |----|
口口口口 |----|
口口口口 |----|
10
口口口口 |①---|
口口口① |----|
口口口口 |----|
口口口口 |----|
11
口口口口 |①---|
口口口口 |----|
①口口口 |----|
口口口口 |----|
12
口口口口 |①---|
口口口口 |----|
口口口① |----|
口口口口 |----|
13
口口口口 |①---|
口口口口 |----|
口①②口 |②---|
口口口口 |----|
14
口口口② |①---|
口口口① |----|
口口口口 |②---|
口口口口 |----|
15
口口口口 |①---|
口口口口 |----|
口②①口 |②---|
口口口口 |----|
16
②口口口 |①---|
①口口口 |----|
口口口口 |②---|
口口口口 |----|
17
口口口口 |①---|
口①②口 |②---|
口③口口 |----|
口口口口 |③---|
18
③②②③ |①---|
口口口口 |----|
口口①口 |②---|
口口口口 |--③-|
19
口口口口 |----|
口口口口 |----|
口口口口 |----|
口口口口 |----|
20
口口口口 |①---|
口①①口 |----|
口口口口 |----|
口口口口 |----|
21
口口②① |①---|
口口口口 |----|
口口口口 |②---|
口口口口 |----|
22
②①口口 |①---|
口口口口 |----|
口口口口 |②---|
口口口口 |----|
23
口口口口 |①---|
①②口口 |----|
口口口口 |②---|
口口口口 |----|
24
口口口口 |①---|
口口①② |----|
口口口口 |②---|
口口口口 |----|
25
口口口口 |①---|
口②②口 |----|
口①①口 |②---|
口口口口 |----|
26
口口口口 |①---|
口②②口 |----|
口①①口 |②---|
口口口口 |----|
27
①②口口 |①---|
口口口口 |----|
口口口口 |②---|
口口口口 |----|
28
口口①② |①---|
口口口口 |----|
口口口口 |②---|
口口口口 |----|
29
①②口口 |①---|
口口口口 |----|
口口口口 |②---|
口口口口 |----|
30
口口①② |①---|
口口口口 |----|
口口口口 |②---|
口口口口 |----|
31
口口口口 |①---|
口口②① |----|
口口口口 |②---|
口口口口 |----|
32
口口口口 |①---|
②①口口 |----|
口口口口 |②---|
口口口口 |----|
33
口口口口 |①---|
口②②口 |----|
口①①口 |②---|
口口口口 |----|
34
口口口口 |①---|
口②②口 |----|
口①①口 |②---|
口口口口 |----|
35
②口口口 |①---|
①口口③ |②---|
口口口口 |----|
口口口口 |③---|
36
口口口① |①---|
口口口口 |----|
口口口口 |----|
口口口口 |----|
37
①口口口 |①---|
口口口口 |----|
口口口口 |----|
口口口口 |----|
38
口口口口 |①---|
①口口口 |----|
口口口口 |----|
口口口口 |----|
39
口口口口 |①---|
口口口口 |----|
①口口口 |----|
口口口口 |----|
40
口口口口 |①---|
口口口口 |----|
口口口口 |----|
①口口口 |----|
41
口口口口 |①---|
口口口口 |----|
口口口口 |----|
口①口口 |----|
42
口口口口 |①---|
口口口口 |----|
口①口口 |----|
口口口口 |----|
43
口口口口 |①---|
口①口口 |----|
口口口口 |----|
口口口口 |----|
44
口①口口 |①---|
口口口口 |----|
口口口口 |----|
口口口口 |----|
45
口口口口 |①---|
口①①口 |----|
口口口口 |----|
口口口口 |----|
46
①口口① |①---|
口口口口 |----|
口口口口 |----|
口口口口 |----|
47
口口口口 |①---|
口口口口 |②---|
④③②① |③---|
口口口口 |④---|
48
口口口口 |①---|
口②②口 |----|
口口口口 |②---|
口①①口 |----|
49
口口口口 |①---|
口口口口 |②---|
①②③④ |③---|
口口口口 |④---|
50
口口口口 |①---|
口②②口 |----|
口口口口 |②---|
口①①口 |----|
51
口口口口 |①---|
①口口口 |②---|
②口口口 |③---|
③口口口 |----|
52
口口口口 |①---|
口口口① |②---|
口口口② |③---|
口口口③ |----|
53
口口口口 |①---|
①口口口 |②---|
②口口口 |③---|
③口口口 |----|
54
口口口口 |①---|
口口口① |②---|
口口口② |③---|
口口口③ |----|
55
口口口口 |①---|
口口口口 |②---|
①②③④ |③---|
口口口口 |④---|
56
口口口口 |①---|
口②②口 |----|
口口口口 |②---|
口①①口 |----|
57
口口口口 |①---|
口口口口 |②---|
④③②① |③---|
口口口口 |④---|
58
口口口口 |①---|
口②②口 |----|
口口口口 |②---|
口①①口 |----|
59
口口口口 |①---|
口口口① |②---|
口口口② |③---|
口口口③ |----|
60
口口口口 |①---|
①口口口 |②---|
②口口口 |③---|
③口口口 |----|
61
口口口口 |①---|
口口口① |②---|
口口口② |③---|
口口口③ |----|
62
口口口口 |①---|
①口口口 |②---|
②口口口 |③---|
③口口口 |----|
63
口口口口 |①---|
口口口① |②---|
口口口② |③---|
口口口③ |----|
64
口口口口 |①---|
口③④口 |②---|
口①②口 |③---|
口口口口 |④---|
65
①口口① |①---|
口口口口 |----|
口②②口 |②---|
口口口口 |----|
66
②口口口 |①---|
①口口口 |----|
口口口口 |②---|
口口口口 |----|
67
口口口口 |①---|
口口口口 |----|
口①②口 |②---|
口口口口 |----|
68
口口口② |①---|
口口口① |----|
口口口口 |②---|
口口口口 |----|
69
口口口口 |①---|
口①②口 |②---|
口③口口 |----|
口口口口 |③---|
70
③②②③ |①---|
口口口口 |----|
口口①口 |②---|
口口口口 |--③-|
71
口口口口 |----|
口口口口 |----|
口口口口 |----|
口口口口 |----|
72
口口口口 |①---|
口口口口 |----|
口①①口 |----|
口口口口 |----|
73
①口口① |①---|
②口口② |--②-|
③口口③ |----|
口口口口 |③---|

accuracy: 99.5%
最終更新:2022年12月20日 02:55