アットウィキロゴ
DREAMING-ING!!
ときめきアイドル project

ADVANCED

Level: 5
BPM: 180
Notes: 393

1
口口口口 |----|
口口口口 |----|
口口口口 |----|
口口口口 |----|
2
口口口口 |----|
口口口口 |----|
口口口口 |----|
口口口口 |----|
3
①口口① |①---|
④③②口 |②-③-|
口⑤⑥口 |④---|
口口口口 |⑤-⑥-|
4
④口口④ |①---|
口②③口 |②-③-|
口口口① |--④-|
口口口口 |----|
5
口口口口 |①---|
口②③④ |②-③-|
口⑥⑤口 |④---|
①口口① |⑤-⑥-|
6
④口口④ |①---|
口③②口 |②-③-|
①口口口 |--④-|
口口口口 |----|
7
口口口口 |①---|
口口口① |②---|
②口口口 |③---|
口口口③ |----|
8
口口口口 |①---|
①口口口 |②---|
口口口② |③---|
③④④口 |④---|
9
口③③口 |①---|
②口口② |--②-|
口①①口 |③---|
口口口口 |----|
10
口口口口 |----|
口口口口 |----|
口①口口 |----|
口口口口 |①---|
11
④口口口 |①---|
口②口口 |②---|
口口口口 |③---|
口③①口 |④---|
12
口口口口 |①---|
口口口口 |②---|
口①②口 |③---|
口③④口 |④---|
13
口④⑤① |①---|
③口口⑥ |②-③-|
口②口口 |--④-|
口口口口 |⑤-⑥-|
14
口口口口 |①-②-|
⑦⑥⑤口 |③-④-|
口③④口 |--⑤-|
口①②口 |⑥-⑦-|
15
口③②① |----|
⑥④⑤口 |①-②-|
口口口口 |③-④-|
口口口口 |⑤-⑥-|
16
口口口口 |①-②-|
口口口① |③-④-|
口②③④ |--⑤-|
⑦⑥⑤口 |⑥-⑦-|
17
⑤③④⑥ |①-②-|
①口口② |③-④-|
口口口口 |----|
口口口口 |⑤-⑥-|
18
⑤口口⑤ |①-②-|
口①②口 |----|
口③④口 |③-④-|
口口口口 |--⑤-|
19
口口口口 |--①-|
口①②③ |②-③-|
口⑥⑦口 |④-⑤-|
口④⑤口 |⑥-⑦-|
20
③口口③ |①-②-|
口口口口 |--③-|
①口口② |----|
口口口口 |----|
21
口口口口 |----|
①②④③ |①-②-|
口口口口 |③-④-|
口⑤口口 |--⑤-|
22
④口口① |----|
口口口② |--①-|
口口口③ |②-③-|
口口口口 |④---|
23
口⑤⑤口 |①---|
④口口口 |②-③-|
②③口口 |--④-|
口①口口 |--⑤-|
24
①口口口 |----|
②口口口 |----|
③口口口 |--①-|
口口口口 |②-③-|
25
口口⑥口 |--①-|
口口④⑤ |②-③-|
口②③口 |④-⑤-|
口①口口 |--⑥-|
26
⑥口口⑦ |--①-|
⑤④口口 |②-③-|
口③②口 |④-⑤-|
口口①口 |⑥-⑦-|
27
口口口口 |--①-|
⑤口口口 |②---|
③④②① |③-④-|
口口口口 |--⑤-|
28
口口口口 |--①-|
口口②② |--②-|
口口口口 |----|
口①口口 |----|
29
口口口口 |----|
③④②① |①-②-|
口口口口 |③-④-|
口口⑤口 |--⑤-|
30
①口口④ |----|
②口口口 |--①-|
③口口口 |②-③-|
口口口口 |④---|
31
口⑤⑤口 |①---|
口口口④ |②-③-|
口口③② |--④-|
口口①口 |--⑤-|
32
口口口① |----|
口口口② |----|
口口口③ |--①-|
口口口口 |②-③-|
33
口⑥口口 |--①-|
⑤④口口 |②-③-|
口③②口 |④-⑤-|
口口①口 |--⑥-|
34
口口口⑥ |--①-|
口口④⑤ |②-③-|
口②③口 |④-⑤-|
口①口口 |⑥---|
35
口①④口 |①---|
口口口口 |②-③-|
口②②口 |----|
口③③口 |④---|
36
口口口口 |①-②-|
口口口口 |----|
①口口① |----|
②口口② |----|
37
口口①① |①---|
口口口口 |--②-|
口②③口 |③---|
口口口口 |----|
38
①①口口 |①---|
口口口口 |--②-|
口③②口 |③---|
口口口口 |----|
39
口口口口 |①--②|
口①④口 |--③-|
口⑤②口 |④--⑤|
⑥口口③ |--⑥-|
40
口口④④ |①--②|
口①⑤⑤ |--③-|
口口②口 |④---|
口口口③ |⑤---|
41
②口口口 |①---|
③口口口 |----|
④口①① |--②-|
口口口口 |③-④-|
42
口口口① |----|
口口口② |----|
口口口③ |--①-|
口口口口 |②-③-|
43
口①口口 |①---|
口口口口 |②-③-|
口②③口 |--④-|
口④⑤口 |⑤---|
44
口口①口 |①---|
口⑥口口 |②-③-|
②口⑤③ |--④-|
口④口口 |⑤-⑥-|
45
②②①① |①---|
口口口口 |--②-|
口口口口 |----|
口③③口 |③---|
46
口③②口 |①---|
①④④① |②---|
①②③① |③---|
口口口口 |④---|
47
①口口① |①---|
②口口口 |②-③-|
口③⑥口 |④---|
口⑤④口 |⑤-⑥-|
48
②③口口 |①---|
③②口① |②-③-|
口口口口 |--④-|
口④④口 |----|
49
口口口口 |①---|
口口口② |②-③-|
口⑥③口 |④---|
①④⑤① |⑤-⑥-|
50
口口③② |①---|
①口②③ |②-③-|
口口口口 |--④-|
口④④口 |----|
51
①口口口 |①---|
口口口② |②---|
③口口口 |③---|
口口口口 |----|
52
口口口① |①---|
②口口口 |②---|
口④口③ |③---|
口口口口 |--④-|
53
口口口口 |①---|
④②③④ |②-③-|
⑤口①⑤ |--④-|
口⑥⑥口 |⑤-⑥-|
54
口②①口 |----|
口③③口 |①---|
口①②口 |②---|
口口口口 |③---|
55
①口口① |①---|
口口口② |②-③-|
口⑥③口 |④---|
口④⑤口 |⑤-⑥-|
56
口口③② |①---|
①口②③ |②-③-|
口口口口 |--④-|
口④④口 |----|
57
口口口口 |①---|
②口口口 |②-③-|
口③⑥口 |④---|
①⑤④① |⑤-⑥-|
58
②③口口 |①---|
③②口① |②-③-|
口口口口 |--④-|
口④④口 |----|
59
口口口① |①---|
②口口口 |②---|
口口口③ |③---|
口口口口 |----|
60
①口口口 |①---|
口口口② |②---|
③口口口 |③---|
口④④口 |④---|
61
口③③口 |①---|
②口口② |--②-|
口①①口 |③---|
口口口口 |----|
62
口口口口 |----|
口口口口 |----|
①①口口 |----|
口口口口 |①---|
63
④④口口 |①---|
口②口口 |②---|
口口口口 |③---|
口③①① |④---|
64
口口口口 |①---|
口口口口 |②---|
口①②口 |③---|
口③④口 |④---|
65
③口①① |①---|
口④⑤⑥ |②-③-|
口②口口 |--④-|
口口口口 |⑤-⑥-|
66
口口口口 |①-②-|
⑦⑥⑤口 |③-④-|
口③④口 |--⑤-|
口①②口 |⑥-⑦-|
67
口③②① |----|
⑥④⑤口 |①-②-|
口口口口 |③-④-|
口口口口 |⑤-⑥-|
68
口口口口 |①-②-|
口口口① |③-④-|
口②③④ |--⑤-|
⑦⑥⑤口 |⑥-⑦-|
69
⑤③④⑥ |①-②-|
①口口② |③-④-|
口口口口 |----|
口口口口 |⑤-⑥-|
70
⑤口口⑤ |①-②-|
口①②口 |----|
口③④口 |③-④-|
口口口口 |--⑤-|
71
口口口口 |--①-|
口①②③ |②-③-|
口⑥⑦口 |④-⑤-|
口④⑤口 |⑥-⑦-|
72
③口口③ |①-②-|
口口口口 |--③-|
①口口② |----|
口口口口 |----|
73
②口①口 |①---|
③口口③ |--②-|
口④④口 |----|
口①口② |③-④-|

accuracy: 99.5%
最終更新:2022年12月20日 03:06