アットウィキロゴ
DREAMING-ING!!
ときめきアイドル project

EXTREME

Level: 8
BPM: 180
Notes: 516

1
口口口口 |----|
口口口口 |----|
口口口口 |----|
口口口口 |----|
2
口口口口 |----|
口口口口 |----|
口口口口 |----|
口口口口 |----|
3
①①口口 |①---|
口口②口 |②-③-|
口③⑥口 |④---|
口⑤④口 |⑤-⑥-|
4
④④①① |①---|
②口口口 |②-③-|
③口口口 |--④-|
口口口口 |----|
5
口口①① |①---|
口②口口 |②-③-|
口⑥③口 |④---|
口④⑤口 |⑤-⑥-|
6
①①④④ |①---|
口口口② |②-③-|
口口口③ |--④-|
口口口口 |----|
7
口②口口 |①--②|
口口口口 |--③-|
①③口口 |④---|
口口④⑤ |--⑤-|
8
口口②口 |①--②|
口④口口 |--③-|
口⑤③① |④---|
口口⑤口 |⑤---|
9
口③③口 |①---|
②口①② |--②-|
口口口① |③---|
口口口口 |----|
10
口口口口 |----|
口口口口 |----|
口口口口 |----|
口口口① |①---|
11
③④口口 |①---|
④②口口 |②---|
口口①口 |③---|
口口口口 |④---|
12
口口①口 |①---|
口②口口 |②---|
①口③口 |③---|
口④口口 |④---|
13
口①口口 |①---|
①②③口 |②-③-|
口口口①
口口①口

口口口④
口口口⑤
口口口⑥ |--④-|
口口口口 |⑤-⑥-|
14
口④口⑤ |①-②-|
口③⑥口 |③-④-|
口⑦②口 |--⑤-|
口口①口 |⑥-⑦-|
15
口口口口 |----|
①口⑥⑤ |①-②-|
②口口④ |③-④-|
口③口口 |⑤-⑥-|
16
口④①口 |①-②-|
③⑤口口 |③-④-|
口②⑥口 |--⑤-|
口⑦口口 |⑥-⑦-|
17
④口口③ |①-②-|
②⑥⑤① |③-④-|
③口口④ |----|
①⑤⑥② |⑤-⑥-|
18
口②①口 |①-②-|
口口口口 |----|
口①②口
口口口口

③口⑤⑤
④口口⑤
口口口④ |③-④-|
口口口③ |--⑤-|
19
口口口口 |--①-|
⑥④⑤⑦ |②-③-|
口口③口 |④-⑤-|
口②①口 |⑥-⑦-|
20
②口口口 |①-②-|
口口口口 |--③-|
①口口口 |----|
口③③口 |----|
21
口口口口 |----|
①口口⑤ |①-②-|
口②③口 |③-④-|
口④口口 |--⑤-|
22
口④口④ |----|
口口口口 |--①-|
①口口口 |②-③-|
口②③口 |④---|
23
③⑤口⑤ |①---|
口①②① |②-③-|
口口②口 |--④-|
口④口口 |--⑤-|
24
口口③③ |----|
口口口口 |----|
②口口口 |--①-|
口①口口 |②-③-|
25
⑤⑤口口 |--①-|
口③④口 |②-③-|
口①②口 |④-⑤-|
口⑥⑥口 |--⑥-|
26
口口⑦⑦ |--①-|
口⑤③① |②-③-|
口⑥④② |④-⑤-|
口口口口 |⑥-⑦-|
27
②口⑤口 |--①-|
口④口⑤ |②---|
①口口口 |③-④-|
口③口口 |--⑤-|
28
口口口① |--①-|
口口①口 |--②-|
⑤④③口 |--③-|
口②②口 |④-⑤-|
29
口口①① |①---|
⑥②③① |②-③-|
口口口口 |④-⑤-|
口④⑤口 |--⑥-|
30
口口口口 |----|
④口口口 |--①-|
口口②① |②-③-|
口③口口 |④---|
31
⑤①⑤① |①---|
口口③口 |②-③-|
口②③② |--④-|
口④口口 |--⑤-|
32
③③口口 |----|
口口口口 |----|
口口口② |--①-|
口口①口 |②-③-|
33
口口⑤⑤ |--①-|
口④③口 |②-③-|
口②①口 |④-⑤-|
口⑥⑥口 |--⑥-|
34
口口口口 |--①-|
①③⑤口 |②-③-|
②④⑥口 |④-⑤-|
口口口口 |⑥---|
35
口口②③ |①---|
口口口② |②-③-|
口④④口 |----|
口①①口 |④---|
36
②①口口 |①-②-|
①口口口 |----|
口口口口 |③---|
口③④口 |④---|
37
①口口口 |①---|
口②③口 |--②-|
①口口口 |③---|
口口口口 |----|
38
口口口① |①---|
口③②口 |--②-|
口口口① |③---|
口口口口 |----|
39
口①④口 |①--②|
①⑤②④ |--③-|
⑥②⑤③ |④--⑤|
口⑥③口 |--⑥-|
40
②口口① |①--②|
⑤口③⑤ |--③-|
口④口口 |④---|
口口口口 |⑤---|
41
④口口口 |①---|
③口口口 |----|
口②口口 |--②-|
口①①口 |③-④-|
42
口口口③ |----|
口口口② |----|
口口①口 |--①-|
口口口口 |②-③-|
43
③⑤口口 |①---|
口①①口 |②-③-|
②④口口 |--④-|
口①①口 |⑤---|
44
口口⑥③ |①---|
口①①⑤ |②-③-|
口口④② |--④-|
口①①口 |⑤-⑥-|
45
口②③口 |①---|
口口①口 |--②-|
口①口口 |----|
口③②口 |③---|
46
①口④② |①---|
②④口① |②---|
③③④② |③---|
②④③③ |④---|
47
①①口⑤ |①---|
口口②⑥ |②-③-|
⑥③口口 |④---|
口口④口 |⑤-⑥-|
48
④④口口 |①---|
口①②口 |②-③-|
口②①③ |--④-|
口口③口 |----|
49
⑤口①① |①---|
⑥②口口 |②-③-|
口口③⑥ |④---|
口④口口 |⑤-⑥-|
50
口口④④ |①---|
口②③① |②-③-|
①③②口 |--④-|
④④口口 |----|
51
口①口⑤ |①--②|
②②③口 |--③-|
①口⑤口 |④---|
口口④口 |--⑤-|
52
口口①口 |①--②|
口③②② |--③-|
口口⑤① |④---|
口④口⑤ |--⑤-|
53
③②⑥口 |①---|
②③口⑥ |②-③-|
口④口① |--④-|
口⑤①口 |⑤-⑥-|
54
口口③① |----|
①③口口 |①---|
②②③① |②---|
①③②② |③---|
55
①①口⑤ |①---|
口口②⑥ |②-③-|
⑥③口口 |④---|
口口④口 |⑤-⑥-|
56
④④口口 |①---|
口①口口 |②-③-|
口口①口 |--④-|
口②③口 |----|
57
⑤口①① |①---|
⑥②口口 |②-③-|
口口③⑥ |④---|
口④口口 |⑤-⑥-|
58
④口口④ |①---|
口②③① |②-③-|
①③②口 |--④-|
口口口口 |----|
59
口①口⑤ |①--②|
②②③口 |--③-|
①口⑤口 |④---|
口口④口 |--⑤-|
60
④④①口 |①--②|
④③②② |--③-|
口⑤口① |④---|
口口⑤口 |⑤---|
61
口③③口 |①---|
②口①② |--②-|
口④口① |③---|
口口口口 |④---|
62
口口口口 |①---|
口口口口 |②---|
③口口口 |③---|
②①口④ |④---|
63
③④④口 |①---|
④②口口 |②---|
④口①口 |③---|
口口口口 |④---|
64
口口口① |①---|
口②口口 |②---|
口口③口 |③---|
①④口口 |④---|
65
②①口口 |①---|
①③③② |②-③-|
②③③①
口口①②

口⑥⑤④
口口口口
口口口口 |--④-|
口口口口 |⑤-⑥-|
66
④口口⑤ |①-②-|
口③⑥口 |③-④-|
口⑦口② |--⑤-|
口口①口 |⑥-⑦-|
67
口口口口 |----|
①口⑥⑤ |①-②-|
②口口④ |③-④-|
口③口口 |⑤-⑥-|
68
口④①口 |①-②-|
③⑤口口 |③-④-|
口②⑥口 |--⑤-|
口⑦口口 |⑥-⑦-|
69
④口口③ |①-②-|
②⑥⑤① |③-④-|
③口口④ |----|
①⑤⑥② |⑤-⑥-|
70
口②①口 |①-②-|
口口口口 |----|
口①②口
口口口口

③口⑤⑤
④口口⑤
口口口④ |③-④-|
口口口③ |--⑤-|
71
口口口口 |--①-|
⑥④⑤⑦ |②-③-|
口口③口 |④-⑤-|
口②①口 |⑥-⑦-|
72
②口口口 |①-②-|
口口口口 |--③-|
①④⑤口 |----|
口③③口 |④-⑤-|
73
②口口① |①---|
②③④① |--②-|
①④③② |----|
①口口② |③-④-|

accuracy: 99.5%
最終更新:2022年12月20日 03:17