アットウィキロゴ
変わりゆく時間とノスタルジアと
あずときだしゅんすけ

BASIC

Level: 2
BPM: 105-141
Notes: 214

1
口口口口 |(141)----|
口口口口 |----|
口口口口 |①---|
①②口口 |②---|
2
口口口口 |①---|
口口口口 |----|
②③口口 |②---|
口口①口 |③---|
3
口口口口 |①---|
②③口口 |----|
口口①口 |②---|
口口口口 |③---|
4
②③口口 |①---|
口口①口 |----|
口口口口 |②---|
口口口口 |③---|
5
口口①口 |①---|
口口口口 |----|
口口口口
口口口口
6
口口口口 |----|
口口口口 |----|
口口口口 |----|
口口口口 |----|
7
口②①口 |①---|
口④③口 |②---|
口口口口 |③---|
口口口口 |④---|
8
口口口口 |①---|
口口口口 |②---|
口②①口 |③---|
口④③口 |④---|
9
口口口口 |①---|
口口口口 |②---|
④口口③ |③---|
②口口① |④---|
10
④口口③ |①---|
②口口① |②---|
口口口口 |③---|
口口口口 |④---|
11
口②①口 |①---|
口④③口 |②---|
口口口口 |③---|
口口口口 |④---|
12
口口口口 |①---|
口口口口 |②---|
口②①口 |③---|
口④③口 |④---|
13
口口口口 |①---|
口口口口 |②---|
④口口③ |③---|
②口口① |④---|
14
口口口口 |①---|
口口②① |----|
口口口口 |②---|
口口口口 |----|
15
①②③④ |①---|
口口口口 |②---|
口口口口 |③---|
口口口口 |④---|
16
口口口口 |①---|
①②③④ |②---|
口口口口 |③---|
口口口口 |④---|
17
口口口口 |①---|
口口口口 |②---|
①②③④ |③---|
口口口口 |④---|
18
口口口口 |①---|
口口口口 |②---|
口口口口 |③---|
①②③④ |④---|
19
④③②① |①---|
口口口口 |②---|
口口口口 |③---|
口口口口 |④---|
20
口口口口 |①---|
④③②① |②---|
口口口口 |③---|
口口口口 |④---|
21
口口口口 |①---|
口②②口 |----|
口①①口 |②---|
口口口口 |----|
22
口口口口 |①---|
①口口① |----|
②口口② |②---|
口口口口 |----|
23
口口口口 |①---|
口②②口 |----|
口①①口 |②---|
口口口口 |----|
24
口口口口 |①---|
①口口① |----|
②口口② |②---|
口口口口 |----|
25
口口口口 |①---|
口①①口 |----|
口①①口 |----|
口口口口 |----|
26
口口口口 |----|
①②口口 |----|
口口口口 |①---|
口口口口 |②---|
27
口口口口 |①---|
口口①口 |----|
口口口口 |----|
口口口口 |----|
28
口口口口 |----|
口口口口 |----|
口口口口 |----|
口口口口 |----|
29
口口口口 |①---|
口口口口 |②---|
口③④口 |③---|
口①②口 |④---|
30
口③④口 |①---|
口①②口 |②---|
口口口口 |③---|
口口口口 |④---|
31
①口口② |①---|
③口口④ |②---|
口口口口 |③---|
口口口口 |④---|
32
口口口口 |①---|
口口口口 |②---|
①口口② |③---|
③口口④ |④---|
33
口口口口 |①---|
口口口口 |----|
口①①口 |----|
口口口口 |----|
34
口口口口 |①---|
口①①口 |----|
口口口口 |----|
口口口口 |----|
35
口口口口 |①---|
口口口口 |----|
口①①口 |----|
口口口口 |----|
36
口口口口 |①---|
口①①口 |----|
口口口口 |----|
口口口口 |----|
37
口口口口 |①---|
①②③④ |②---|
口口口口 |③---|
口口口口 |④---|
38
口口口口 |①---|
口口口口 |②---|
①②③④ |③---|
口口口口 |④---|
39
口口口口 |①---|
①②③④ |②---|
口口口口 |③---|
口口口口 |④---|
40
口口口口 |①---|
口口口口 |②---|
①②③④ |③---|
口口口口 |④---|
41
口口口口 |①---|
口①①口 |----|
口口口口 |----|
口口口口 |----|
42
口口口口 |①---|
口口口口 |----|
口口①口 |----|
口口口口 |----|
43
口口口口 |①---|
口口口口 |----|
口①口口 |----|
口口口口 |----|
44
口口口口 |①---|
口口口口 |----|
口口①口 |----|
口口口口 |----|
45
口口口口 |①---|
口口口口 |----|
口①口口 |----|
口口口口 |----|
46
口口口口 |①---|
口口口口 |----|
口口①口 |----|
口口口口 |----|
47
口口口口 |①---|
口①口口 |----|
口口口口 |----|
口口口口 |----|
48
口口口口 |①---|
口口①口 |----|
口口口口 |----|
口口口口 |----|
49
口口口口 |①---|
口口口口 |②---|
④口口③ |③---|
②口口① |④---|
50
④口口③ |①---|
②口口① |②---|
口口口口 |③---|
口口口口 |④---|
51
口②①口 |①---|
口④③口 |②---|
口口口口 |③---|
口口口口 |④---|
52
口口口口 |①---|
口口口口 |②---|
口②①口 |③---|
口④③口 |④---|
53
口口口口 |①---|
口口口口 |②---|
④口口③ |③---|
②口口① |④---|
54
口口口口 |①---|
口口②① |----|
口口口口 |②---|
口口口口 |----|
55
口口口口 |(136)①---|
②①口口 |----|
口口口口 |②---|
口口口口 |----|
56
口口口口 |----|
口口口口 |----|
口口口口 |----|
口口口口 |----|
57
口口口口 |(139)----|
口口口口 |----|
口口口口
口口口口
58
口口口口 |①---|
口口口口 |----|
口①①口 |----|
口口口口 |----|
59
口口口口 |①---|
口①①口 |----|
口口口口 |----|
口口口口 |----|
60
口口口口 |①---|
口口口口 |----|
口①①口 |----|
口口口口 |----|
61
口口口口 |①---|
口①①口 |----|
口口口口 |----|
口口口口 |----|
62
①口口② |①---|
口口口口 |----|
口口口口 |②---|
口口口口 |----|
63
口口口口 |①---|
①口口② |----|
口口口口 |②---|
口口口口 |----|
64
口口口口 |①---|
口口口口 |----|
①口口② |②---|
口口口口 |----|
65
口口口口 |①---|
口口口口 |----|
口口口口 |②---|
①口口② |----|
66
口④口口 |①---|
口③口口 |②---|
口②口口 |③---|
口①口口 |(141)④---|
67
口口①口 |①---|
口口②口 |②---|
口口③口 |③---|
口口④口 |④---|
68
口④口口 |①---|
口③口口 |②---|
口②口口 |③---|
口①口口 |④---|
69
口口①口 |①---|
口口②口 |②---|
口口③口 |③---|
口口④口 |④---|
70
口口口口 |①---|
①②③④ |②---|
口口口口 |③---|
口口口口 |④---|
71
口口口口 |①---|
口口口口 |②---|
①②③④ |③---|
口口口口 |④---|
72
口口口口 |①---|
①②③④ |②---|
口口口口 |③---|
口口口口 |④---|
73
口口口口 |①---|
口口口口 |----|
口①①口 |----|
口口口口 |----|
74
口口口口 |(105)----|
口口口口 |----|
口口口口 |(115)----|
口口口口 |----|
75
口口口口 |-①--|
②②②② |----|
口①①口 |②---|
口口口口 |----|

accuracy: 100%
最終更新:2024年08月11日 08:02