アットウィキロゴ
変わりゆく時間とノスタルジアと
あずときだしゅんすけ

ADVANCED

Level: 5
BPM: 105-141
Notes: 264

1
口口口口 |(141)----|
口口口口 |----|
口③②口 |①---|
口①口口 |②-③-|
2
口口口口 |①---|
①口口① |----|
口③④口 |②---|
口口②口 |③-④-|
3
口口口口 |①---|
①口口① |----|
口④③口 |②---|
口②口口 |③-④-|
4
口口口口 |①---|
①口口① |----|
口③④口 |②---|
口口②口 |③-④-|
5
口口口口 |①---|
①口口① |----|
口口口口
口口口口
6
口口口口 |----|
口口口口 |----|
口口口口 |----|
口口口口 |----|
7
口口口① |----|
口②③口 |①---|
口口口口 |②---|
口口口口 |③---|
8
口①口口 |①---|
④⑤口口 |②---|
口②③口 |③---|
口口口口 |④-⑤-|
9
口口②口 |①---|
口口①口 |----|
口口口口 |②---|
口口口口 |----|
10
口口口口 |----|
口口口口 |----|
口口口口 |----|
口口口口 |----|
11
口口口口 |----|
口③②口 |①---|
口口口① |②---|
口口口口 |③---|
12
①③②④ |①---|
口口口口 |②---|
口口口口 |③---|
口口口口 |④---|
13
口口口口 |①---|
口①口口 |----|
口口口口 |----|
口口口口 |----|
14
口口口口 |①---|
口口口口 |----|
口①①口 |②---|
口②②口 |----|
15
口口口① |----|
口②口口 |①---|
口③口口 |②---|
口口口口 |③---|
16
口口口口 |①---|
③口①③ |②---|
口④②口 |③---|
口口口口 |--④-|
17
口口口口 |①---|
②口口② |----|
口口①口 |②---|
口口口口 |----|
18
口口口口 |----|
口口口口 |----|
口口口口 |----|
口口口口 |----|
19
口口口口 |----|
口口口口 |①---|
口口口口 |②---|
口②③① |③---|
20
口口口口 |①---|
口⑤④口 |②---|
口②③口 |③---|
①口口口 |④-⑤-|
21
口口口口 |①---|
①口口口 |----|
口②②口 |②---|
口口口口 |----|
22
口口口口 |①---|
口口②① |----|
口口口口 |②---|
口口口口 |----|
23
口口口口 |①---|
①②口口 |----|
口口口口 |②---|
口口口口 |----|
24
口口口口 |①---|
口口②① |----|
口口口口 |②---|
口口口口 |----|
25
口①①口 |①---|
口②口口 |②---|
口③口口 |③---|
口④口口 |④---|
26
④口口④ |①---|
口口口口 |--②-|
口②③口 |③---|
口口①口 |④---|
27
口口口口 |①---|
①口口① |----|
口口口口 |----|
口口口口 |----|
28
口口口口 |----|
口口口口 |----|
口口口口 |----|
口口口口 |----|
29
口口口口 |①---|
③②①③ |--②-|
口①②口 |----|
口口口口 |③---|
30
③口口③ |----|
口①②口 |--①-|
口口口口 |②---|
口口口口 |③---|
31
口口口口 |①---|
口口口口 |----|
①口口① |----|
口口口口 |----|
32
口口口口 |----|
①②口口 |----|
口口口口 |①---|
口口口口 |②---|
33
口口口口 |①---|
口口①口 |----|
口口口口
口口口口

口口口口
②④③口
口口口口 |②---|
口口口口 |③-④-|
34
口口口口 |----|
口②③① |----|
口口口口 |①---|
口口口口 |②-③-|
35
口口口口 |----|
②④③口 |①---|
口口①口 |②---|
口口口口 |③-④-|
36
口口口口 |----|
①口口① |----|
口②②口 |①---|
口③③口 |②-③-|
37
口口口口 |----|
①③④② |①---|
①口口② |②---|
口口口口 |③-④-|
38
①口口① |----|
②口口② |①---|
③口口③ |②---|
口口口口 |③---|
39
④①①④ |①---|
口②③口 |--②-|
口口口口 |③---|
口口口口 |④---|
40
⑤口口⑤ |①---|
②④④② |②---|
①③③① |③---|
口口口口 |④-⑤-|
41
口口口口 |----|
口口口口 |----|
口口口口 |----|
口口口口 |----|
42
②口口① |----|
口口口口 |----|
口口口口 |①---|
①口口② |②---|
43
②口①③ |①---|
口口口口 |----|
口口口口 |②---|
③①口② |③---|
44
③①口② |①---|
口口口口 |----|
口口口口 |②---|
②口①③ |③---|
45
口②①口 |①---|
口口③口 |----|
口③口口 |②---|
口①②口 |③---|
46
①口口口 |①---|
口口口口 |----|
口口口口 |----|
口口口① |----|
47
口口口① |----|
口②③口 |①---|
口口口口 |②---|
口口口口 |③---|
48
口①口口 |①---|
④⑤口口 |②---|
口②③口 |③---|
口口口口 |④-⑤-|
49
口口②口 |①---|
口口①口 |----|
口口口口 |②---|
口口口口 |----|
50
口口口口 |----|
口口口口 |----|
口口口口 |----|
口口口口 |----|
51
口口口口 |----|
口③②口 |①---|
口口口① |②---|
口口口口 |③---|
52
①③②口 |①---|
口口口口 |②---|
口口④口 |③---|
口口口口 |--④-|
53
口口口口 |①---|
口口口口 |----|
口①口口 |②---|
口②口口 |----|
54
口口口口 |①---|
口口口口 |----|
口①①口 |②---|
口②②口 |----|
55
口口口口 |(136)----|
口口口口 |----|
口口口口 |----|
口口口口 |----|
56
口口口口 |----|
口口口口 |----|
口口口口 |----|
口口口口 |----|
57
口口口口 |(139)①---|
①②口口 |②---|
口口口口
口口口口
58
口口口口 |①---|
口口①口 |----|
口口口口
口口口口

口口口口
②④③口
口口口口 |②---|
口口口口 |③-④-|
59
口口口口 |----|
口②③① |----|
口口口口 |①---|
口口口口 |②-③-|
60
口口口口 |----|
②④③口 |①---|
口口①口 |②---|
口口口口 |③-④-|
61
口口口口 |----|
①口口① |----|
口②②口 |①---|
口③③口 |②-③-|
62
口口口口 |----|
①③④② |①---|
①口口② |②---|
口口口口 |③-④-|
63
①口口① |----|
口口口口 |①---|
口口②口 |----|
口口口口 |②---|
64
④口口④ |①---|
口②③口 |--②-|
口①口口 |③---|
口口口口 |④---|
65
口口口口 |①---|
②③口口 |----|
①口口① |②---|
口口口口 |③---|
66
口口口口 |①---|
口口①口 |----|
口口口口
口口口口

口口口口
②④③口
口口口口 |②---|
口口口口 |(141)③-④-|
67
口口口口 |----|
口②③① |----|
口口口口 |①---|
口口口口 |②-③-|
68
口口口口 |----|
②④③口 |①---|
口口①口 |②---|
口口口口 |③-④-|
69
口口口口 |----|
①口口① |----|
口②②口 |①---|
口③③口 |②-③-|
70
口口口口 |----|
①③④② |①---|
①口口② |②---|
口口口口 |③-④-|
71
①口口① |----|
口口口口 |①---|
口口②口 |----|
口口口口 |②---|
72
④口口④ |①---|
口②③口 |--②-|
口①口口 |③---|
口口口口 |④---|
73
口口口口 |①---|
口口口口 |----|
①口口① |----|
口口口口 |----|
74
口口口口 |(105)----|
口口口口 |----|
口口口口 |(115)----|
口口口口 |----|
75
①口口① |-①--|
口③③口 |--②-|
口②②口 |③---|
口口口口 |----|

accuracy: 100%
最終更新:2024年08月11日 08:01