アットウィキロゴ
変わりゆく時間とノスタルジアと
あずときだしゅんすけ

EXTREME

Level: 8
BPM: 105-141
Notes: 632

1
口口口口 |(141)----|
口②③口 |----|
口口口口 |①---|
口口①口 |②-③-|
2
①口口② |①②③④|
③⑨⑧④ |⑤⑥--|
⑤口口⑥ |⑦---|
口⑦口口 |⑧-⑨-|
3
②口⑦① |①②③④|
④口口③ |⑤⑥--|
⑥⑧⑨⑤ |⑦---|
口口口口 |⑧-⑨-|
4
①口口② |①②③④|
③⑨⑧④ |⑤⑥--|
⑤口口⑥ |⑦---|
口⑦口口 |⑧-⑨-|
5
②口口① |①②③④|
④口口③ |⑤⑥--|
⑥口口⑤
口口口口
6
口口口口 |----|
口口口口 |----|
口口口口 |----|
口口口口 |----|
7
⑦⑦⑧口 |①-②-|
⑤⑤⑥口 |③-④-|
③③④口 |⑤-⑥-|
①口②口 |⑦-⑧-|
8
⑦⑦⑧⑧ |①-②-|
⑤⑤⑥口 |③-④-|
③③④口 |⑤-⑥-|
①口②口 |⑦-⑧-|
9
⑦口⑧口 |①-②-|
⑤⑤⑥口 |③-④-|
③口④口 |⑤-⑥-|
①①②口 |⑦-⑧-|
10
⑦口⑧口 |①-②-|
⑤口⑥口 |③-④-|
③口④口 |⑤-⑥-|
①口②口 |⑦-⑧-|
11
⑦口⑦⑧ |①-②-|
⑤口⑤⑥ |③-④-|
③口③④ |⑤-⑥-|
①口口② |⑦-⑧-|
12
⑦⑦口⑧ |①-②-|
⑤⑤口⑥ |③-④-|
③③口④ |⑤-⑥-|
①①口② |⑦-⑧-|
13
⑦口口⑧ |①-②-|
⑤口口⑥ |③-④-|
③口口④ |⑤-⑥-|
①①口② |⑦-⑧-|
14
⑨口口⑧ |①---|
⑦口口⑥ |----|
⑤①①④ |②③④⑤|
③口口② |⑥⑦⑧⑨|
15
口③②④ |①---|
口①①口 |②---|
口口口口 |③---|
④②③口 |④---|
16
①口口口 |①---|
口口④口 |②---|
口③②口 |③---|
口口口① |--④-|
17
口口②口 |①---|
口①口口 |----|
口口口口 |②---|
口口口口 |----|
18
②口口① |①---|
口口口口 |----|
口口口口 |②---|
口口口口 |----|
19
④②③口 |①---|
口①①口 |②---|
口口口口 |③---|
口③②④ |④---|
20
口②③① |①---|
口⑤口口 |②---|
口口④口 |③---|
①③②口 |④-⑤-|
21
口口⑤① |①-②-|
⑦口②⑥ |③-④-|
口口④⑧ |⑤-⑥-|
口口⑦③ |⑦-⑧-|
22
口口口② |①-②-|
口口①④ |③-④-|
口口③口
口口口口

口口⑥⑧
⑦口口口
口口口⑦ |⑤-⑥-|
口口口⑤ |⑦-⑧-|
23
口口口口 |①-②-|
口口口② |③-④-|
口口①口
口口③④

口口⑤口
⑦口⑦⑧
口口口⑥ |⑤-⑥-|
口口口口 |⑦-⑧-|
24
口口口② |①-②-|
口口口口 |③-④-|
口口③口
口口①④

口口⑦口
⑦口⑤口
口口⑧⑥ |⑤-⑥-|
口口口口 |⑦-⑧-|
25
⑩②⑨① |①②③④|
⑫④⑪③ |⑤⑥⑦⑧|
⑭⑥⑬⑤ |⑨⑩⑪⑫|
⑯⑧⑮⑦ |⑬⑭⑮⑯|
26
口②口① |①②③-|
口口口③ |--④-|
口④口口
口口口口

口⑥口⑥
口⑤口口
口口口口 |⑤---|
口口口口 |⑥---|
27
①⑨②⑩ |①②③④|
③⑪④⑫ |⑤⑥⑦⑧|
⑤⑬⑥⑭ |⑨⑩⑪⑫|
⑦⑮⑧⑯ |⑬⑭⑮⑯|
28
①口口⑤ |①-②-|
口⑥②口 |③-④-|
③口口⑦ |⑤-⑥-|
口⑧④口 |⑦-⑧-|
29
②⑩①⑨ |①②③④|
④⑫③⑪ |⑤⑥⑦⑧|
⑥⑭⑤⑬ |⑨⑩⑪⑫|
⑧⑯⑦⑮ |⑬⑭⑮⑯|
30
②口①口 |①②③-|
口④③口 |--④-|
口口口口
口口口口

⑥口⑥口
口口口口
口⑤口口 |⑤---|
口口口口 |⑥---|
31
⑨①⑩② |①②③④|
⑪③⑫④ |⑤⑥⑦⑧|
⑬⑤⑭⑥ |⑨⑩⑪⑫|
⑮⑦⑯⑧ |⑬⑭⑮⑯|
32
⑨①口② |①②③④|
⑨③⑩④ |⑤⑥⑦⑧|
口⑤⑩⑥ |⑨---|
口⑦口⑧ |⑩---|
33
口口口① |①---|
口①口口 |----|
口口口①
口口口口

口④口口
口口口③
口④③④ |②---|
②②口口 |③-④-|
34
口口③③ |----|
口口②③ |----|
①②口口 |①---|
口口①口 |②-③-|
35
口④口③ |----|
②④③口 |①---|
口②④口 |②---|
口①口① |③-④-|
36
口口口口 |----|
②口③① |----|
口③口口 |①---|
①口口② |②-③-|
37
⑤口④④ |①---|
③③口口 |②---|
口口②② |③---|
口①口口 |④-⑤-|
38
口①口口 |①---|
口口②② |②---|
③③口口 |③---|
口口④④ |④---|
39
⑤口⑤口 |①---|
①④口③ |②-③-|
口口②口 |④---|
口①口口 |⑤---|
40
口①口口 |①---|
口口②① |②---|
②口口口
口口口口

口口口口
⑤口口⑤
口④④口 |③---|
口③③口 |④-⑤-|
41
③口口① |①-②-|
口④②口 |③-④-|
口⑥⑧口 |⑤-⑥-|
⑤口口⑦ |⑦-⑧-|
42
③口口① |①-②-|
口④②口 |③-④-|
口⑥⑧口 |⑤-⑥-|
⑤口口⑦ |⑦-⑧-|
43
③口口口 |①---|
口口口口 |----|
口口口口 |②---|
②①①口 |③---|
44
口口口③ |①---|
口口口口 |----|
①口口口 |②---|
口口口② |③---|
45
口口③口 |①---|
口口口口 |----|
口口口① |②---|
口口②口 |③---|
46
口口口口 |①---|
口①口口 |----|
口口口口 |----|
口口口口 |----|
47
口口口口 |①---|
口口口口 |②---|
口④③② |③---|
①口口口 |④---|
48
⑥②⑦① |①②③④|
⑧④⑨③ |⑤---|
⑩口口⑤ |⑥⑦⑧⑨|
口口⑪口 |⑩-⑪-|
49
口⑧口⑦ |①-②-|
口⑥⑤⑤ |③-④-|
口④口③ |⑤-⑥-|
口②口① |⑦-⑧-|
50
口⑧口⑦ |①-②-|
口⑥口⑤ |③-④-|
口④口③ |⑤-⑥-|
口②口① |⑦-⑧-|
51
⑧⑦口⑦ |①-②-|
⑥⑤口⑤ |③-④-|
④③口③ |⑤-⑥-|
②口口① |⑦-⑧-|
52
⑧⑧口⑦ |①-②-|
⑥口⑤⑤ |③-④-|
④口③③ |⑤-⑥-|
②口①① |⑦-⑧-|
53
⑧口口⑦ |①-②-|
⑥口⑤⑤ |③-④-|
④口口③ |⑤-⑥-|
②口①① |⑦-⑧-|
54
⑫②①⑪ |①-②-|
⑩④③⑨ |③-④-|
⑧口口⑦ |⑤⑥⑦⑧|
⑥口口⑤ |⑨⑩⑪⑫|
55
口②①口 |(136)①②③④|
⑫④③口 |⑤⑥⑦⑧⑨⑩|
口⑪⑩⑨ |⑪⑫--|
⑧⑦⑥⑤ |----|
56
口③③口 |①---|
口口口口 |②---|
口②口口 |③---|
口①口口 |----|
57
①口口口 |(139)①---|
①口②口 |②---|
口口②口
口口口口
58
口口口① |①---|
口①口口 |----|
口口口①
口口口口

口④口口
口口口③
口④③④ |②---|
②②口口 |③-④-|
59
口口③③ |----|
口口②③ |----|
①②口口 |①---|
口口①口 |②-③-|
60
口④口③ |----|
②④③口 |①---|
口②④口 |②---|
口①口① |③-④-|
61
口口口口 |----|
②口③① |----|
口③口口 |①---|
①口口② |②-③-|
62
⑤口④④ |①---|
③③口口 |②---|
口口②② |③---|
口①口口 |④-⑤-|
63
口①口口 |①---|
口口②② |②---|
③③口口 |③---|
口口④④ |④---|
64
⑤口⑤口 |①---|
①④口③ |②-③-|
口口②口 |④---|
口①口口 |⑤---|
65
口①口口 |①---|
口口②① |②---|
②④④口 |③---|
口③③口 |④---|
66
②⑨⑨① |①②③④|
④⑩⑩③ |⑤⑥⑦-|
⑥口口⑤ |⑧---|
口⑧⑧⑦ |(141)⑨-⑩-|
67
②口口① |①②③④|
④⑧⑧③ |⑤⑥⑦-|
⑥⑩⑩⑤ |⑧---|
口⑨⑨⑦ |⑨-⑩-|
68
②⑩⑩① |①②③④|
④⑨⑨③ |⑤⑥⑦-|
⑥口口⑤ |⑧---|
口⑧⑧⑦ |⑨-⑩-|
69
②⑩口① |①②③④|
④⑨⑧③ |⑤⑥⑦-|
⑥⑧⑨⑤ |⑧---|
口口⑩⑦ |⑨-⑩-|
70
①口口① |①---|
②口口② |②---|
③⑤⑤③ |③---|
口④④口 |④-⑤-|
71
口①①口 |----|
口口口口 |①---|
口口口口 |----|
②口口② |②---|
72
口口口口 |①---|
①③③① |--②-|
口②②口 |③---|
④口口④ |④---|
73
①口口① |①---|
口口口口 |----|
口口口口 |----|
口口口口 |----|
74
⑦口口口 |(105)----|
⑤口口⑥ |----|
③口口④ |(115)-①②③|
①口口② |④⑤⑥⑦|
75
口④②① |①②--|
③②③④ |-③-④|
④③②③ |----|
口②④口 |----|

accuracy: 100%
最終更新:2024年08月11日 08:01