アットウィキロゴ
Fly far bounce
猫叉Master

BASIC

Level: 3
BPM: 163
Notes: 154

1
口口口口 |----|
口口口口 |----|
口口口口 |----|
口口口口 |----|
2
口口口口 |----|
口口口口 |----|
口口口口 |----|
口口口口 |----|
3
口口口口 |①---|
口①口口 |----|
口口口口 |----|
口口口口 |----|
4
口口口口 |----|
口口口口 |----|
口口口口 |----|
口口口口 |----|
5
口口口口 |①---|
口①口口 |----|
口口口口 |----|
口口口口 |----|
6
口口口口 |----|
口口口口 |----|
口口口口 |----|
口口口口 |----|
7
口口口口 |①---|
口口①口 |----|
口口口口 |----|
口口口口 |----|
8
口口口口 |----|
口口口口 |----|
口口口口 |----|
口口口口 |----|
9
口口口口 |①---|
口口①口 |----|
口口口口 |----|
口口口口 |----|
10
口口口口 |----|
口口口口 |----|
口口口口 |----|
口口口口 |----|
11
口②①口 |①---|
口口口口 |----|
口口口口 |②---|
口口口口 |----|
12
口口口口 |①---|
口②①口 |----|
口口口口 |②---|
口口口口 |----|
13
口口口口 |①---|
②口口① |----|
口口口口 |----|
口口口口 |②---|
14
口口口口 |----|
口口口口 |----|
口口口口 |----|
口口口口 |----|
15
口①②口 |①---|
口口口口 |----|
口口口口 |②---|
口口口口 |----|
16
口口口口 |①---|
口①②口 |----|
口口口口 |②---|
口口口口 |----|
17
口口口口 |①---|
①口口② |----|
口口口口 |----|
口口口口 |②---|
18
口口口口 |----|
口口口口 |----|
口②①口 |①---|
口口口口 |②---|
19
口口口口 |①---|
②口口① |----|
口口口口 |②---|
口口口口 |----|
20
口口口口 |①---|
口口口口 |----|
②口口① |②---|
口口口口 |----|
21
口④口口 |①---|
口口③口 |②---|
口②口口 |③---|
口口①口 |④---|
22
口口①口 |①---|
口②②口 |----|
口口口口 |②---|
口口口口 |----|
23
①口口② |①---|
口口口口 |----|
口口口口 |②---|
口口口口 |----|
24
口①口口 |①---|
口口②口 |②---|
口③口口 |③---|
口口④口 |④---|
25
口口④口 |①---|
口③口口 |②---|
口口②口 |③---|
口①口口 |④---|
26
口①口口 |①---|
口②②口 |----|
口口口口 |②---|
口口口口 |----|
27
口口②① |①---|
口口口口 |----|
口口口口 |②---|
口口口口 |----|
28
①②口口 |①---|
口口口口 |----|
口口口口 |②---|
口口口口 |----|
29
口口口口 |①---|
口口②① |----|
口口口口 |②---|
口口口口 |----|
30
口口口口 |①---|
①②口口 |----|
口口口口 |②---|
口口口口 |----|
31
口口口口 |①---|
口口口口 |----|
口口②① |②---|
口口口口 |----|
32
口口口口 |①---|
口口口口 |----|
①②口口 |②---|
口口口口 |----|
33
口口口口 |①---|
口口口口 |----|
口口口口 |②---|
口②①口 |----|
34
口口口口 |①---|
口②②口 |----|
口①①口 |②---|
口口口口 |----|
35
口口口口 |①---|
口口②① |----|
口口口口 |②---|
口口口口 |----|
36
口口口口 |①---|
②①口口 |----|
口口口口 |②---|
口口口口 |----|
37
口口口口 |①---|
口口口口 |----|
①②口口 |②---|
口口口口 |----|
38
口口口口 |①---|
口口口口 |----|
口口①② |②---|
口口口口 |----|
39
口口口口 |①---|
①②口口 |----|
口口口口 |②---|
口口口口 |----|
40
口口口口 |①---|
口口①② |----|
口口口口 |②---|
口口口口 |----|
41
口口口口 |①---|
口口口口 |----|
口口②① |②---|
口口口口 |----|
42
口口④口 |①---|
口③口口 |②---|
口口②口 |③---|
口①口口 |④---|
43
①口口口 |①---|
口②口口 |----|
口口口口 |②---|
口口口口 |----|
44
口口口① |①---|
口口②口 |----|
口口口口 |②---|
口口口口 |----|
45
口口口口 |①---|
①口口口 |----|
口②口口 |②---|
口口口口 |----|
46
口口口口 |①---|
口①①口 |----|
口口口口 |----|
口口口口 |----|
47
①口口口 |①---|
口②口口 |----|
口口口口 |②---|
口口口口 |----|
48
口口口① |①---|
口口②口 |----|
口口口口 |②---|
口口口口 |----|
49
口口口口 |①---|
①口口口 |----|
口②口口 |②---|
口口口口 |----|
50
口口口口 |①---|
口①①口 |--②-|
口②②口 |----|
口口口口 |----|
51
口口口口 |①---|
口④⑤口 |②-③-|
口②③口 |----|
口口①口 |④-⑤-|
52
口①②口 |----|
口口口口 |①-②-|
口口口口 |----|
口口口口 |----|
53
①口口② |①---|
口③③口 |--②-|
口口口口 |----|
口口口口 |③---|
54
口口口口 |----|
口口口口 |----|
口口口口 |----|
口口口口 |----|
55
口口口口 |①---|
口④⑤口 |②-③-|
口②③口 |----|
口口①口 |④-⑤-|
56
口①②口 |----|
口口口口 |①-②-|
口口口口 |----|
口口口口 |----|
57
①口口② |①---|
口③③口 |--②-|
口口口口 |----|
口口口口 |③---|
58
口口口口 |----|
口口口口 |----|
口口口口 |①---|
口②①口 |②---|
59
口口口口 |①---|
④口口③ |②---|
②口口① |③---|
口口口口 |④---|
60
④③③④ |①---|
口②②口 |②---|
口①①口 |③---|
口口口口 |④---|
61
口口口口 |①---|
②①①② |----|
口口口口 |----|
口口口口 |②---|
62
口口口口 |----|
口口口口 |----|
口口口口 |----|
口口口口 |----|
63
口口口口 |①---|
口③③口 |--②-|
口②②口 |----|
口口①口 |--③-|
64
口①①口 |----|
口口口口 |--①-|
口口口口 |----|
口口口口 |----|

BPM: ?
65
口口口口 |①---|
口口口口 |----|
口①①口
口口口口

口口口口
口②②口
口②②口 |----|
口口口口 |②---|
66
口口口口 |----|
口口口口 |----|
口口口口 |----|
口口口口 |----|
67
口口口口 |----|
口①①口 |----|
口①①口 |----|
口口口口 |①---|
68
口口口口 |----|
口口口口 |----|
口口口口 |----|
口口口口 |----|
69
口口口口 |----|
口口口口 |----|
口口口口 |----|
口口口口 |----|
70
口口口口 |----|
口口口口 |----|
口口口口 |----|
口口口口 |----|
71
口口口口 |----|
口口口口 |----|
口口口口 |----|
口口口口 |----|
72
口口口口 |①---|
口口口口 |----|
口①口口 |----|
口口口口 |----|

accuracy: 99%
最終更新:2022年06月05日 03:56