アットウィキロゴ
Fly far bounce
猫叉Master

ADVANCED

Level: 6
BPM: 163
Notes: 382

1
口口口口 |----|
口口口口 |----|
口口口口 |----|
口口口口 |----|
2
口口口口 |----|
口口口口 |----|
口口口口 |----|
口口口口 |----|
3
口口口口 |①---|
口口口口 |--②-|
①②口口
口口口口

口口口口
口口口口
③口口口 |----|
口口口口 |--③-|
4
口口口口 |----|
口口①口 |--①-|
口口口口 |----|
口口口口 |----|
5
口口口口 |①---|
口口口口 |--②-|
口口①② |----|
口口口③ |③---|
6
口口口口 |----|
口口口口 |----|
口口口口 |----|
口口口口 |----|
7
口口口口 |①---|
口口口口 |②-③-|
①口②③
口口口口

口口口口
口口口口
④口口口 |----|
口口口口 |--④-|
8
口口口口 |----|
口口口② |①-②-|
口口口① |----|
口口口口 |----|
9
口口口口 |①---|
口口口口 |--②-|
①口口② |----|
口③③口 |③---|
10
口口口② |----|
①口口口 |----|
口口口口 |①---|
口口口口 |②---|
11
口口口口 |①---|
口口④⑤ |②-③-|
①口②③ |----|
口口口口 |④-⑤-|
12
口口①② |----|
口口口口 |①-②-|
口口口口 |----|
口口口口 |----|
13
口口口口 |①---|
①口口② |--②-|
口③③口 |----|
口口口口 |③---|
14
口口口口 |----|
口口口口 |----|
口口口口 |①-②-|
①②③④ |③-④-|
15
口口⑥口 |①-②-|
⑤口口④ |③-④-|
①②③口 |----|
口口口口 |⑤-⑥-|
16
口口口② |----|
口①口口 |①-②-|
⑤口口⑥ |----|
③口口④ |③④⑤⑥|
17
口口口口 |①---|
口①②口 |--②-|
口口口口 |----|
③口口③ |③---|
18
口口口口 |----|
①口口② |----|
①口口② |①---|
口口口口 |②---|
19
④口①口 |①---|
③③口③ |②---|
②口①口 |③---|
①口口口 |④---|
20
④口口口 |①---|
③口③口 |②---|
②④口④ |③---|
①①③① |④---|
21
口口①口 |①---|
口②口① |②---|
③⑤②口 |③---|
口③④口 |④-⑤-|
22
③④②⑤ |①---|
①口口⑤ |②---|
口口口① |③-④-|
口②口口 |⑤---|
23
口口口④ |①---|
口③口③ |②---|
口①③② |③---|
口口①① |④---|
24
口③口④ |①---|
口④口③ |②---|
②口口② |③---|
口①口① |④---|
25
口口⑥⑦ |①---|
口口⑤口 |②-③-|
②③④口 |④-⑤-|
口口口① |⑥-⑦-|
26
口①口口 |①-②-|
④②口④ |③---|
口③口口 |④---|
口口口口 |----|
27
口口口口 |①---|
③④⑤口 |②---|
①口②口 |③-④-|
口口口口 |⑤---|
28
口口口口 |--①-|
口⑦⑥口 |②-③-|
口④⑤口 |④-⑤-|
口①②③ |⑥-⑦-|
29
②口口① |①---|
口④③口 |②---|
口⑤⑥口 |③-④-|
口口口口 |⑤-⑥-|
30
口口口口 |①---|
口口③② |----|
口口口口 |②---|
口①口口 |③---|
31
口口口口 |①---|
③④⑤口 |②---|
①口②口 |③-④-|
口口口口 |⑤---|
32
口口口口 |--①-|
口⑦⑥口 |②-③-|
口④⑤口 |④-⑤-|
口①②③ |⑥-⑦-|
33
②口③① |①---|
口④口口 |②---|
口口⑤口 |③-④-|
口⑥口口 |⑤-⑥-|
34
④④④④ |①---|
口③③③ |②---|
②②口口 |③---|
口口①口 |④---|
35
口口口口 |①---|
③④⑤口 |②---|
口口②口 |③-④-|
口①口口 |⑤---|
36
⑦口口口 |--①-|
口口口⑥ |②-③-|
口口口⑤ |④-⑤-|
④①②③ |⑥-⑦-|
37
口⑥⑦① |①---|
口⑤④口 |②-③-|
口②③口 |④-⑤-|
口口口口 |⑥-⑦-|
38
①口口口 |①---|
口口口口 |----|
②口口② |②---|
口③③口 |③---|
39
①口口④ |①-②-|
②口口③ |③-④-|
⑤口口⑥ |⑤-⑥-|
⑦口口⑧ |⑦-⑧-|
40
①⑦口③ |①-②-|
口⑥口⑧ |③-④-|
⑤②④口 |⑤-⑥-|
口口口口 |⑦-⑧-|
41
①口③② |①---|
④⑤⑥⑦ |②-③-|
口口口口 |④-⑤-|
口口口口 |⑥-⑦-|
42
口①口① |①---|
③口③口 |②---|
口口口口 |③---|
④②④② |④---|
43
①口口口 |①---|
口口口② |②-③-|
口口口③ |④---|
口口口④ |----|
44
口口口口 |①---|
①口口② |②-③-|
口口口③ |④---|
口口口④ |----|
45
口口口口 |①---|
口口口② |②-③-|
①口⑥③ |④---|
口口⑤④ |⑤-⑥-|
46
口口口口 |①---|
口口①口 |----|
口口口口 |----|
口口口口 |----|
47
①口口口 |①---|
口口口② |②-③-|
口口口③ |④---|
口口口④ |----|
48
口口口口 |①---|
①口口② |②-③-|
口口口③ |④---|
口口口④ |----|
49
⑤口口口 |①---|
口口口② |②-③-|
①口口③ |④---|
口口口④ |⑤---|
50
口口口① |①---|
口②②口 |--②-|
⑥口口⑤ |----|
④口口③ |③④⑤⑥|
51
口③①④ |①---|
口口口⑤ |②-③-|
口②口⑥ |---④⑤⑥|
口⑧口⑦ |⑦-⑧-|
52
口口①口 |---①②③|
口口②口 |④-⑤-|
口⑤③口
口口④口

口口⑨口
⑧口口口
口口口⑦ |----|
⑥口口口 |⑥⑦⑧⑨|
53
口④口口 |①-②-|
口③口口 |③-④-|
口②口口
口①口口

口口口⑤
口口口⑥
口口口⑦ |⑤⑥⑦⑧--|
口⑨口⑧ |⑨---|
54
①口口口 |----|
②口口口 |---①②③|
③⑥口口 |④---|
④口⑤口 |--⑤⑥|
55
口口口口 |①---|
口口①口 |②-③-|
口口③口
口②口口

口口口口
口口⑤口
口④口口 |----|
口口口口 |④-⑤-|
56
口口②口 |----|
⑤①⑥口 |①-②-|
口口口口 |----|
③口④口 |③④⑤⑥|
57
口④口口 |①-②-|
口③口口 |③-④-|
口②口口
口①口口

口口口⑤
口口口⑥
口口口⑦ |⑤⑥⑦⑧--|
口⑨口⑧ |⑨---|
58
⑤口口① |----|
⑥口口② |----|
⑦口口③ |①②③④--|
⑧口口④ |⑤⑥⑦⑧--|
59
口⑦⑦口 |①-②-|
口⑥③口 |③-④-|
口⑤②口 |⑤-⑥-|
口④①口 |⑦---|
60
⑨口口⑤ |①-②-|
⑩④口⑥ |③-④-|
⑪③②⑦ |⑤⑥⑦⑧--|
⑫口①⑧ |⑨⑩⑪⑫--|
61
口④口⑤ |①-②-|
口③②⑥ |③-④-|
口口①⑦ |⑤⑥⑦⑧--|
口⑨口⑧ |⑨---|
62
⑧口口⑦ |----|
⑥口口⑤ |----|
④口口③ |①②③④|
②口口① |⑤⑥⑦⑧|
63
口④口口 |①-②-|
口⑤①口 |③-④-|
口⑥②⑧ |⑤-⑥-|
口⑦③口 |⑦-⑧-|
64
④⑤⑥⑦ |①-②-|
③口口① |③-④-|
②口口口 |⑤-⑥-|
口口⑧口 |⑦-⑧-|

BPM: ?
65
⑦口口⑦ |①-②-|
口口⑤⑥ |③-④-|
口③④口 |⑤-⑥-|
①②口口 |⑦---|
66
口口口口 |----|
口口口口 |----|
口口口口 |----|
口口口口 |----|
67
口口口口 |----|
①口口① |----|
①口口① |----|
口口口口 |①---|
68
口口口口 |----|
口口口口 |----|
口口口口 |----|
口口口口 |----|
69
口口口口 |----|
口口口口 |----|
口口口口 |----|
口口口口 |----|
70
口口口口 |----|
口口口口 |----|
口口口口 |----|
口口口口 |----|
71
口口口口 |----|
口口口口 |----|
口口口口 |----|
口口口口 |----|
72
口口口口 |①---|
口口口② |②---|
口①口口 |----|
口口口口 |----|

accuracy: 99%
最終更新:2022年06月05日 04:00