アットウィキロゴ
Fly far bounce
猫叉Master

EXTREME

Level: 9.5
BPM: 163
Notes: 532

1
口口口口 |----|
口口口口 |----|
口口口口 |----|
口口口口 |----|
2
口口口口 |----|
口口口口 |----|
口口口口 |----|
口口口口 |----|
3
口口口口 |①---|
口口口口 |--②-|
①②口口
口口口口

口口口口
口口口口
③口口口 |----|
口口口口 |--③-|
4
口口口口 |----|
口口①口 |--①-|
口口口口 |----|
口口口口 |----|
5
口口口口 |①---|
口口口口 |--②-|
口口①② |----|
口口口③ |③---|
6
口口口③ |--①-|
口口②口 |②-③-|
口①口口 |----|
④口口④ |④---|
7
口口口口 |①---|
口口④⑤ |②-③-|
①口②③ |----|
口口口口 |④-⑤-|
8
口口①② |----|
口口口口 |①-②-|
口口口口 |----|
③口口③ |③---|
9
口⑦口口 |①-②-|
⑦④⑤⑥ |③-④-|
①②③口 |⑤-⑥-|
口口口口 |⑦---|
10
口口口口 |----|
①口②口 |----|
口口口口 |①---|
①口口② |②---|
11
口口口口 |①---|
口口④⑤ |②-③-|
①口②③ |----|
口口口口 |④-⑤-|
12
口口①② |----|
口口口口 |①-②-|
口口口口 |----|
③④⑤⑥ |③④⑤⑥|
13
⑧⑦⑥⑤ |①-②-|
④③口⑨ |③-④-|
①②口口 |⑤⑥⑦⑧--|
口口口口 |⑨---|
14
口口口口 |----|
口口③④ |----|
口口口口 |①-②-|
①②口口 |③-④-|
15
口口口④ |①-②-|
⑤口口⑥ |③-④-|
①②③口 |----|
口口口口 |⑤-⑥-|
16
口口口② |----|
口①口口 |①-②-|
口口口口 |----|
③④⑤⑥ |③④⑤⑥|
17
⑧⑦⑥⑤ |①-②-|
⑨口④③ |③-④-|
口口①② |⑤⑥⑦⑧--|
口口口口 |⑨---|
18
口口口口 |①---|
口口口口 |②---|
①口口口
②口口口

口③③口
③口口③
④口口④ |③---|
口④④口 |④---|
19
①⑦④④ |①-②-|
⑤口②⑥ |③-④-|
口③②⑥ |⑤-⑥-|
口口⑧⑧ |⑦-⑧-|
20
⑦口②④ |①-②-|
口⑤⑥⑧ |③-④-|
③口②④ |⑤-⑥-|
口①⑥⑧ |⑦-⑧-|
21
口口①② |①---|
②口口口 |②---|
口口口口
口①口口

③④④口
口口口口
口口口③ |③---|
⑤口⑤口 |④-⑤-|
22
口口口口 |①---|
②口②口 |②---|
口口口口
口①口①

③④③④
口口口口
口口口口 |③---|
⑤⑤⑤⑤ |④-⑤-|
23
口口口⑤ |①-②-|
口③⑥① |③-④-|
④②⑦口 |⑤-⑥-|
口口口⑧ |⑦-⑧-|
24
②④①③ |①---|
④口口① |②---|
③口口② |③---|
①③②④ |④---|
25
口口口口 |①---|
口口①⑦ |②-③-|
③④⑤⑥ |④-⑤-|
②口口口 |⑥-⑦-|
26
口口②① |①-②-|
口③③口 |③---|
口口口口 |④---|
④口口④ |----|
27
口口口① |①---|
口⑦口⑤ |②-③④|
③④⑥② |⑤-⑥-|
口口口口 |⑦---|
28
口口口口 |--①-|
口口⑥⑦ |②-③-|
④⑤口口 |④-⑤-|
口①②③ |⑥-⑦-|
29
②③④① |①---|
口口⑤口 |②-③-|
口口⑥口 |④-⑤-|
口口⑦口 |⑥-⑦-|
30
口口口口 |①---|
口口口② |----|
口口口口 |②---|
①③口口 |③---|
31
口①口① |①---|
口⑥口⑤ |②-③④|
③④⑦② |⑤-⑥-|
口口口口 |⑦---|
32
口口口口 |--①-|
口口⑥⑦ |②-③-|
④⑤口口 |④-⑤-|
口①②③ |⑥-⑦-|
33
口口口① |①---|
口⑤⑥口 |②-③-|
③④口口 |④-⑤-|
②⑨⑧⑦ |⑥--⑦⑧⑨|
34
④④④④ |①---|
③③③口 |②---|
②②口口 |③---|
①口口口 |④---|
35
口口口口 |①---|
口⑥⑦① |②-③④|
③④⑦⑤ |⑤-⑥-|
口口口② |⑦---|
36
①口口口 |①-②-|
③口⑦⑧ |③-④-|
⑤⑥口口 |⑤-⑥-|
⑦②③④ |⑦-⑧-|
37
①口口① |①---|
②口口口 |②-③-|
④⑤⑥⑦ |④-⑤-|
⑥②③④ |⑥-⑦-|
38
①②②① |①---|
①口口① |----|
③口口③ |②---|
口口口口 |③---|
39
⑦⑥⑤④ |①-②-|
口③⑨⑦ |③--④⑤⑥|
⑧⑩②口 |⑦-⑧-|
口①口口 |⑨-⑩-|
40
⑩⑨⑧⑦ |①-②-|
④②口⑤ |③-④-|
口⑥②① |⑤-⑥-|
④③①③ |⑦⑧⑨⑩--|
41
口口口⑦ |①---|
口口①⑥ |②-③-|
口口①⑤ |④-⑤-|
②③口④ |⑥-⑦-|
42
口口口口 |①---|
口口口口 |②---|
②口口口
①②口口

口③口口
口口③口
口④口③ |③---|
④口④口 |④---|
43
口⑤①口 |①---|
②③④口 |②-③-|
口口⑥口 |④---|
口口口口 |--⑤⑥|
44
口口⑤口 |①---|
口④③② |②-③-|
口⑥口口 |④---|
口①口口 |--⑤⑥|
45
口⑤⑥口 |①---|
②③④口 |②-③-|
口口口口 |④---|
口口①口 |⑤-⑥-|
46
口口口① |①---|
口口口口 |----|
口口口口 |----|
②③④⑤ |②③④⑤|
47
⑤口口口 |①---|
②③④口 |②-③-|
①口⑥口 |④---|
口口口口 |--⑤⑥|
48
口口口⑤ |①---|
口④③② |②-③-|
口⑥口口 |④---|
口①口口 |--⑤⑥|
49
口口口⑤ |①---|
②③④口 |②-③-|
口口口口 |④---|
口口①口 |⑤---|
50
口口②口 |①---|
口口②口 |--②-|
口①口口
①口口口

口口口口
口口口口
口口口口 |----|
③④⑤⑥ |③④⑤⑥|
51
⑦⑥⑤④ |①---|
口口口口 |②-③-|
③②口① |---④⑤⑥|
⑧口口口 |⑦-⑧-|
52
⑥⑦口口 |---①②③|
④③②① |④-⑤-|
口⑤口口 |--⑥⑦|
⑧⑨⑩⑪ |⑧⑨⑩⑪|
53
⑧⑦⑥⑤ |①-②-|
⑨口③④ |③-④-|
⑨口②① |⑤⑥⑦⑧--|
口口口口 |⑨---|
54
④③②① |----|
口⑥⑦⑤ |---①②③|
口⑧口口 |④-⑤-|
口口口口 |⑥-⑦⑧|
55
口口口口 |①---|
口口⑤③ |②-③-|
口④③⑤ |----|
口②①口 |④-⑤-|
56
口口口② |----|
口口口口 |①-②-|
①口②口 |----|
③④⑤⑥ |③④⑤⑥|
57
⑧⑦⑥⑤ |①-②-|
③②④① |③-④-|
③④②① |⑤⑥⑦⑧--|
口⑨⑨口 |⑨---|
58
④口⑦口 |----|
⑤⑩⑧① |----|
⑥⑪⑨② |①②③④⑤⑥|
口⑫口③ |⑦⑧⑨⑩⑪⑫|
59
⑦④口① |①②③④|
口口口⑤ |⑤-⑥⑦|
口口口口
②口③⑥

口⑭⑧⑪
⑨口口口
⑫口⑩⑬ |⑧⑨⑩-|
口口口口 |⑪⑫⑬⑭|
60
⑧口⑤口 |①②③④|
口②口口 |⑤⑥⑦⑧|
口③口口
④⑥①⑦

口⑮口⑨
⑱⑯⑫⑩
⑲⑰⑬⑪ |⑨⑩⑪⑫⑬⑭|
⑳口⑭口 |⑮⑯⑰⑱⑲⑳|
61
③口①⑤ |①-②-|
口口⑨⑥ |③-④-|
口⑨④⑦ |⑤⑥⑦⑧--|
口②口⑧ |⑨---|
62
⑦③⑥⑩ |----|
口口口② |--①②|
①口口口 |③④⑤⑥|
⑨⑤④⑧ |⑦⑧⑨⑩|
63
口口口口 |①-②-|
①②③口 |③-④-|
②③口④
口口口口

口⑦⑥⑧
⑦口口⑥
口口⑤口 |⑤-⑥-|
口⑤口口 |⑦-⑧-|
64
①口口口 |①-②-|
口口②④ |③-④-|
③①口口
口口③②

⑦⑥⑧⑥
⑨⑤口口
口口⑦口 |⑤-⑥-|
口⑤口口 |⑦-⑧⑨|

BPM: ?
65
口口口口 |①-②-|
口④口口 |③-④-|
③①口口
②口口口

⑧⑦⑥⑤
口口口口
口⑨⑨口 |⑤⑥⑦⑧--|
口口口口 |⑨---|
66
口口口口 |----|
口口口口 |----|
口口口口 |----|
口口口口 |----|
67
①口口① |----|
口①①口 |----|
口口口口 |----|
口口口口 |①---|
68
口口口口 |----|
口口口口 |----|
口口口口 |----|
口口口口 |----|
69
口口口口 |----|
口口口口 |----|
口口口口 |----|
口口口口 |----|
70
口口口口 |----|
口口口口 |----|
口口口口 |----|
口口口口 |----|
71
口口口口 |----|
口口口口 |----|
口口口口 |----|
口口口口 |----|
72
口口口口 |①②③④|?
口口⑥⑦ |⑤-⑥⑦----|?
口③④⑤ |----|
①②口口 |----|

accuracy: 99%
最終更新:2022年06月05日 04:00