アットウィキロゴ
Evans ~NOSTALGIA Ver. ~
ADVANCED

Level: 7
BPM: 112-182
Notes: 582

BPM:?
1
口口口口 |----|
口口口口 |----|
口口口口 |----|
①②③④ |----①②③④|
2
口口⑤口 |---①|
口①②口 |--②-|
口③④口 |-③--|
口口口口 |④-⑤-|
3
口口口口 |①--②|
口①②口 |--③-|
口③口口
口口口口

口口口口
口⑥口口
口口④口 |-④--|
口⑤口口 |⑤-⑥-|
4
②口口① |①--②|
口⑤④③ |--③-|
口⑥口口 |-④--|
口口口口 |⑤-⑥-|
5
口③②口 |①--②|
⑧⑦⑥⑤ |--③-|
口④①口 |-④--|
口口口口 |⑤⑥⑦⑧|
6
口④口① |①--②|
口⑥⑤口 |--③-|
③口②口 |-④--|
口口口口 |⑤-⑥-|
7
⑥口口① |①--②|
口口口口 |--③-|
⑤④③② |-④--|
口口口口 |⑤-⑥-|
8
口口口口 |①--②|
口①②⑤ |--③-|
口口口口 |-④--|
③④口⑥ |⑤-⑥-|

BPM: 112(?)
9
口口口口 |①---|
口口口口 |②--③|
①②⑤口 |--④-|
口④③口 |-⑤--|
10
口口口口 |----|
口口口口 |----|
①②口口 |----|
口口口口 |------①②|
11
口口口口 |①---|
口口口口 |----|
口口①口 |----|
口口口口 |----|

BPM:185
12
⑤口④口 |①-②-|
口口③口 |③-④-|
口口②口 |----|
①口口口 |⑤---|
13
口①口口 |①---|
口③⑤② |②-③-|
口口④口 |--④-|
口口口口 |--⑤-|
14
⑤口口④ |①-②-|
口口口③ |③-④-|
口口口② |----|
口①口口 |⑤---|
15
⑤①口④ |①---|
口③口② |②-③-|
口口口口 |--④-|
口口口口 |--⑤-|
16
⑤口④口 |①-②-|
口口③口 |③-④-|
口口②口 |----|
①口口口 |⑤---|
17
口①口口 |①---|
口③⑤② |②-③-|
口口④口 |--④-|
口口口口 |--⑤-|
18
⑤口口④ |①-②-|
口口口③ |③-④-|
口口口② |----|
①口口口 |⑤---|
19
⑥口口⑥ |①-②-|
③口口④ |③-④-|
⑤②②⑤ |---⑤|
口①①口 |--⑥-|
20
⑤口④口 |①-②-|
口口③口 |③-④-|
口口②口 |----|
①口口口 |⑤---|
21
口①口口 |①---|
口③⑤② |②-③-|
口口④口 |--④-|
口口口口 |--⑤-|
22
⑤口口④ |①-②-|
口口口③ |③-④-|
口口口② |----|
口①口口 |⑤---|
23
⑤①口④ |①---|
口③口② |②-③-|
口口口口 |--④-|
口口口口 |--⑤-|
24
⑤口④口 |①-②-|
口口③口 |③-④-|
口口②口 |----|
①口口口 |⑤---|
25
口①口口 |①---|
口③⑤② |②-③-|
口口④口 |--④-|
口口口口 |--⑤-|
26
⑤口口④ |①-②-|
口口口③ |③-④-|
口口口② |----|
①口口口 |⑤---|
27
⑤口口⑤ |①---|
口③口口 |②-③-|
④口②④ |--④-|
口①①口 |--⑤-|
28
口口口口 |①---|
口口口口 |----|
口口口口 |----|
口①①口 |----|
29
口口口口 |----|
口口口口 |----|
口口口口 |----|
口口口口 |----|
30
口口口⑥ |①--②|
口④③口 |--③-|
口②①⑤ |-④--|
口口口口 |⑤-⑥-|
31
口口口⑥ |①--②|
口口口口 |--③-|
口②①⑤ |-④--|
口④③口 |⑤-⑥-|
32
口②①口 |①--②|
口口口③ |--③-|
口口口④ |-④--|
口⑥口⑤ |⑤-⑥-|
33
⑥口口⑤ |①--②|
口②③口 |--③-|
口④①口 |-④--|
口口口口 |⑤-⑥-|
34
⑥口口口 |①--②|
口口口口 |--③-|
⑤④①口 |-④--|
口②③口 |⑤-⑥-|
35
⑥口口口 |①--②|
口②①口 |--③-|
⑤④③口 |-④--|
口口口口 |⑤-⑥-|
36
口口②① |①--②|
③④口口 |--③-|
口⑥⑤口 |-④--|
口口口口 |⑤-⑥-|
37
口⑥⑤① |①--②|
③口口② |--③-|
④口口口 |-④--|
口口口口 |⑤-⑥-|
38
口口口⑥ |①--②|
口④③口 |--③-|
口②①⑤ |-④--|
口口①口 |⑤-⑥-|
39
口口口⑥ |①--②|
口口口口 |--③-|
口②①⑤ |-④--|
口④③口 |⑤-⑥-|
40
口②①口 |①--②|
口口口③ |--③-|
口口口④ |-④--|
口⑥口⑤ |⑤-⑥-|
41
⑥口口⑤ |①--②|
口②③口 |--③-|
口④①口 |-④--|
口口口口 |⑤-⑥-|
42
⑥口口口 |①--②|
口口口口 |--③-|
⑤④①口 |-④--|
口②③口 |⑤-⑥-|
43
⑥口口口 |①--②|
口②①口 |--③-|
⑤④③口 |-④--|
口口口口 |⑤-⑥-|
44
口口②① |①--②|
③④口口 |--③-|
口⑥⑤口 |-④--|
口口口口 |⑤-⑥-|
45
口⑥⑤① |①--②|
③口口② |--③-|
④口口口 |-④--|
口口口口 |⑤-⑥-|
46
口⑤口口 |①---|
口④口口 |②---|
口口③口 |③---|
口②①口 |④-⑤-|
47
口口④口 |----|
口口③口 |①---|
口②口口 |②---|
口口①口 |③-④-|
48
口④口口 |----|
口③口口 |①---|
口口②口 |②---|
口①口口 |③-④-|
49
口口④口 |----|
口口③口 |①---|
口②口口 |②---|
口口①口 |③-④-|
50
口②④口 |----|
口①③口 |①-②-|
口口口口 |----|
口口口口 |③-④-|
51
口②④口 |----|
口①③口 |①-②-|
口口口口 |----|
口口口口 |③-④-|
52
③④口口 |①---|
②口口口 |②---|
①口口口 |③---|
口口口口 |④---|
53
口口①② |①---|
口口口③ |②---|
口口口④ |③---|
口口口口 |④---|
54
⑦⑧口口 |①-②-|
⑥口口口 |③-④-|
⑤口口口 |⑤-⑥-|
④③②① |⑦-⑧-|
55
口口①② |①-②-|
口⑨⑩③ |③-④-|
口⑧⑪④ |⑤⑥⑦⑧|
口⑦⑥⑤ |⑨⑩⑪-|
56
①⑨⑬⑤ |----|
②⑩口⑥ |①②③④⑤⑥⑦⑧|
③⑪口⑦ |⑨⑩⑪⑫⑬---|
④⑫口⑧ |----|
57
④口口④ |①-②-|
口⑤③口 |③--④|
口⑥②口 |--⑤-|
口⑦①口 |⑥-⑦-|
58
口⑥⑤口 |①--②|
⑥口②⑤ |--③-|
①④③① |-④--|
口口口口 |⑤-⑥-|
59
①⑥⑥① |①--②|
口⑤⑤口 |--③-|
口③④口 |-④--|
口②口口 |⑤-⑥-|
60
②口口① |①--②|
⑥口口⑤ |--③-|
⑥③③⑤ |-④--|
口④④口 |⑤-⑥-|
61
④②④② |①--②|
口⑤⑤口 |--③-|
口③③口 |-④--|
①⑥⑥① |⑤-⑥-|
62
口口口① |①--②|
②⑥⑥口 |--③-|
口口口③ |-④--|
④⑤⑤口 |⑤-⑥-|
63
①⑥⑥口 |①--②|
口口口② |--③-|
③口口口 |-④--|
口⑤⑤④ |⑤-⑥-|
64
②口口① |①--②|
②⑥⑤① |--③-|
④⑤⑥③ |-④--|
④口口③ |⑤-⑥-|
65
⑥⑥②① |①--②|
口口口⑤ |--③-|
口口口口 |-④--|
③④口⑤ |⑤-⑥-|
66
口⑥⑤口 |①--②|
⑥口②⑤ |--③-|
①④③① |-④--|
口口口口 |⑤-⑥-|
67
①⑥⑥① |①--②|
口⑤⑤口 |--③-|
口③④口 |-④--|
口②口口 |⑤-⑥-|
68
②口口① |①--②|
⑥口口⑤ |--③-|
⑥③③⑤ |-④--|
口④④口 |⑤-⑥-|
69
④②④② |①--②|
口⑤⑤口 |--③-|
口③③口 |-④--|
①⑥⑥① |⑤-⑥-|
70
口口口① |①--②|
②⑥⑥口 |--③-|
口口口③ |-④--|
④⑤⑤口 |⑤-⑥-|
71
①⑥⑥口 |①--②|
口口口② |--③-|
③口口口 |-④--|
口⑤⑤④ |⑤-⑥-|
72
②口口① |①--②|
②⑥⑤① |--③-|
④⑤⑥③ |-④--|
④口口③ |⑤-⑥-|
73
⑥⑥②① |①--②|
口口口⑤ |--③-|
口口口口 |-④--|
③④口⑤ |⑤-⑥-|
74
口口口口 |①---|
口②口口 |--②-|
口口①口 |----|
口口口口 |----|
75
口③口口 |①---|
口口②口 |--②-|
口①口口 |----|
口口口口 |③---|
76
口口①② |①---|
口口口口 |----|
口③④口 |②---|
口口口口 |③-④-|
77
口②③口 |①-②-|
口①④口 |--③-|
口⑤口口 |--④-|
口口口口 |⑤---|
78
①口②口 |①---|
口口口口 |----|
口口口口 |②---|
口口口口 |----|
79
口①口口 |①---|
口③③口 |----|
口②②口 |②---|
口口口口 |③---|
80
①口口① |①---|
②③口② |--②-|
口④口口 |--③-|
口⑤口口 |④-⑤-|
81
④⑤⑥④ |①-②-|
口⑦③口 |③--④|
口口②口 |--⑤-|
口口①口 |⑥-⑦-|
82
口⑨⑧口 |①②③④----|
⑨口⑤⑧ |⑤-⑥-|
口⑦⑥口 |-⑦--|
④③②① |⑧-⑨-|
83
①⑥⑥① |①--②|
口⑤⑤口 |--③-|
口③④口 |-④--|
口②口口 |⑤-⑥-|
84
②口口① |①--②|
⑥口口⑤ |--③-|
⑥③③⑤ |-④--|
口④④口 |⑤-⑥-|
85
④②④② |①--②|
口⑤⑤口 |--③-|
口③③口 |-④--|
①⑥⑥① |⑤-⑥-|
86
口口口① |①--②|
②⑥⑥口 |--③-|
口口口③ |-④--|
④⑤⑤口 |⑤-⑥-|
87
①⑥⑥口 |①--②|
口口口② |--③-|
③口口口 |-④--|
口⑤⑤④ |⑤-⑥-|
88
②口口① |①--②|
②⑥⑤① |--③-|
④⑤⑥③ |-④--|
④口口③ |⑤-⑥-|
89
⑥⑥②① |①--②|
口口口⑤ |--③-|
口口口口 |-④--| slower
③④口⑤ |⑤-⑥-|
90
口口口口 |①---|
口口口口 |----|
口口①口 |----|
口口口口 |----|
最終更新:2019年11月07日 04:48