アットウィキロゴ
Evans ~NOSTALGIA Ver. ~
DJ YOSHITAKA Arranged by まらしぃ

EXTREME

Level: 9.7
BPM: 112-182
Notes: 718

1
口口口口 |(152)----|
口口口口 |----|
①②③口 |----|
口口口口 |---①②③|
2
口⑥③② |①--②|
④口⑤口 |--③-|
口口口① |-④--|
口⑧⑦⑥ |⑤--⑥⑦⑧|
3
②口口口 |①--②|
⑤⑥口③ |--③-|
口口④口 |-④--|
①口口口 |⑤-⑥-|
4
口口①③ |①--②|
口口口口 |--③-|
口②口口
口口口口

口口口口
口口口④
口⑥口⑤ |-④--|
口口口口 |⑤-⑥-|
5
口口口口 |①--②|
口②口口 |--③-|
口口①口
口口③口

口口口口
口⑧⑦口
口⑥⑤口 |-④--|
④口口口 |⑤⑥⑦⑧|
6
口口②① |①--②|
口⑥⑤口 |--③-|
③④口口 |-④--|
口口口口 |⑤-⑥-|
7
①②口口 |①--②|
口⑤⑥口 |--③-|
口口④③ |-④--|
口口口口 |⑤-⑥-|
8
口口②① |①--②|
口⑥⑤口 |--③-|
③④口口 |-④--|
口口口口 |⑤-⑥-|
9
①②口⑤ |(138)①---|
口口③④ |②--③|
口口口口 |(112)--④-|
口口口口 |-⑤--|
10
口口口口 |----|
口口口口 |----|
①②口口 |----|
口口口口 |------①②|
11
口口口口 |①---|
口口口口 |----|
口口①口 |----|
口口口口 |----|
12
口⑤口① |(182)①-②-|
④口口① |③-④-|
口口③口 |----|
②口口口 |⑤---|
13
口口②口 |①-②-|
口口②口 |③-④-|
口③④口
口口口①

⑤⑦口口
口口口口
口口口口 |⑤-⑥-|
口口⑥⑧ |⑦-⑧-|
14
口⑤口① |①-②-|
④口口① |③-④-|
口口③口 |----|
②口口口 |⑤---|
15
④口口口 |①---|
口⑥⑤口 |②-③-|
口②③⑦ |④-⑤-|
口口口① |⑥-⑦-|
16
口⑤口口 |①-②-|
④口口口 |③-④-|
口口③口 |----|
②①①口 |⑤---|
17
口口②口 |①-②-|
口口②口 |③-④-|
口③④口
口口口①

⑤⑦口口
口口口口
口口口口 |⑤-⑥-|
口口⑥⑧ |⑦-⑧-|
18
口⑥⑤① |①-②-|
④口⑤① |③-④-|
口口③口 |⑤---|
②口口口 |⑥---|
19
④口口口 |①-②-|
③口口口 |③-④-|
口②②口
①①①口

口⑥口口
口⑤⑤口
⑥口口⑥ |⑤--⑥|
口⑦⑦⑦ |--⑦-|
20
口⑤口① |①-②-|
④口口① |③-④-|
口口③口 |----|
②口口口 |⑤---|
21
口口口口 |①---|
口口口口 |②-③-|
口②③口
口口口①

口口口口
口口口口
口口口口 |--④-|
口口④⑤ |--⑤-|
22
口⑤口① |①-②-|
④口口① |③-④-|
口口③口 |----|
②口口口 |⑤---|
23
⑥⑦⑦口 |①-②-|
口⑤⑤口 |③-④-|
口③④⑧ |⑤-⑥-|
①②口① |⑦-⑧-|
24
口⑥口口 |①-②-|
④⑤⑤口 |③-④-|
口③③口 |⑤---|
②①①口 |⑥---|
25
口口口口 |①---|
口口口口 |②-③-|
口②③口
口口口①

口口口口
口口口口
口口口口 |--④-|
口口④⑤ |--⑤-|
26
口⑥⑤① |①-②-|
④口⑤① |③-④-|
口口③口 |⑤---|
②口口口 |⑥---|
27
口口⑧口 |①-②-|
口③口口 |③-④-|
①⑦④① |⑤-⑥-|
②⑥⑤② |⑦-⑧-|
28
口口口口 |①---|
口口口口 |----|
①口口① |----|
口口口口 |----|
29
口口口口 |----|
口口口口 |----|
口口口口 |----|
口口口口 |----|
30
口⑥口口 |①--②|
口口⑤口 |--③-|
④口②口 |-④--|
口③口① |⑤-⑥-|
31
口⑥口口 |①--②|
口口⑤口 |--③-|
③④②口 |-④--|
口口口① |⑤-⑥-|
32
③⑤①口 |①--②|
口口④口 |--③-|
口口②口 |-④--|
口口⑥口 |⑤-⑥-|
33
口口口口 |①--②|
口③口口 |--③-|
口①②口
口口口口

口口口口
口口④口
口⑥口⑤ |-④--|
口口口口 |⑤-⑥-|
34
③⑥口口 |①--②|
口口⑤口 |--③-|
②口口④ |-④--|
口口①口 |⑤-⑥-|
35
口⑥口口 |①--②|
口口⑤③ |--③-|
口②④口 |-④--|
口口①口 |⑤-⑥-|
36
口⑥口⑤ |①--②|
口④口口 |--③-|
口③口② |-④--|
口口①口 |⑤-⑥-|
37
口口口④ |①--②|
口⑤⑥口 |--③-|
口②口口 |-④--|
口口③① |⑤-⑥-|
38
口⑥口口 |①--②|
口口⑤口 |--③-|
④口②口 |-④--|
①③口① |⑤-⑥-|
39
口⑥口口 |①--②|
口口⑤口 |--③-|
③④②口 |-④--|
①口口① |⑤-⑥-|
40
③⑥①口 |①--②|
口④⑤① |--③-|
口口②口 |-④⑤-|
口口⑦口 |⑥-⑦-|
41
口口口口 |①--②|
①③口口 |--③-|
口①②口
口口口口

口口口口
口口④口
口⑥口⑤ |-④--|
口口口口 |⑤-⑥-|
42
③⑥口口 |①--②|
口口⑤口 |--③-|
②口口④ |-④--|
①口①口 |⑤-⑥-|
43
口⑥口口 |①--②|
口口⑤③ |--③-|
口②④口 |-④--|
①口①口 |⑤-⑥-|
44
口⑥口⑤ |①--②|
口④口口 |--③-|
口③口② |-④--|
口①①口 |⑤-⑥-|
45
口口口④ |①--②|
口⑤⑥口 |--③-|
口②口口 |-④--|
①③③① |⑤-⑥-|
46
②口口⑤ |①---|
口口口口 |②---|
口①①口 |③---|
④口口③ |④-⑤-|
47
①④⑤口 |----|
口口口口 |①---|
口口口口 |②---|
③口口② |③-④⑤|
48
②口口① |①---|
口口口口 |②---|
口口口口
口口口③

口口口⑤
口口口口
口口口口 |③---|
④口口口 |④-⑤-|
49
①口口④ |----|
口口口口 |①---|
口口口口 |②---|
③口口② |③-④-|
50
口③⑤口 |①---|
②口口④ |②-③-|
口①①口 |----|
口口口口 |④-⑤-|
51
口口口口 |①---|
口口口口 |②-③-|
③①①⑤ |----|
口②④口 |④-⑤-|
52
③④口口 |①---|
②口口口 |②---|
口①①口 |③---|
口口口口 |④---|
53
口口①② |①---|
口口口③ |②---|
口口口④ |③---|
口口口口 |④---|
54
⑦⑧口口 |①-②-|
⑥口口口 |③-④-|
⑤口口口 |⑤-⑥-|
④③②① |⑦-⑧-|
55
口口①② |①-②-|
口⑨⑩③ |③-④-|
口⑧⑪④ |⑤⑥⑦⑧|
口⑦⑥⑤ |⑨⑩⑪-|
56
①⑨⑬⑤ |----|
②⑩口⑥ |①②③④⑤⑥⑦⑧|
③⑪口⑦ |⑨⑩⑪⑫⑬---|
④⑫口⑧ |----|
57
④口口④ |①-②-|
③口⑥③ |③--④|
口⑤②口 |--⑤-|
口口①口 |⑥-⑦-|
58
口⑧口⑧ |①--②|
⑦口⑦③ |③-④-|
⑤⑥②口 |-⑤⑥-|
①④④① |⑦-⑧-|
59
口⑧口⑧ |①--②|
⑦⑥⑦口 |③-④-|
④⑤②④ |-⑤⑥-|
①③口① |⑦-⑧-|
60
④⑦①⑦ |①--②|
口⑤⑥① |③-④-|
④口②口 |⑤⑥--|
⑧③⑧口 |⑦-⑧-|
61
口口口口 |①--②|
①③口② |--③-|
③①②口
口口口口

⑤⑤口口
⑧口④口
口⑧口⑦ |④⑤-⑥|
口⑥⑧⑦ |⑦-⑧-|
62
口⑥①⑥ |---①|
⑤②⑤② |②-③-|
②口②口 |-④--|
③口口④ |⑤-⑥-|
63
口⑧④⑧ |①--②|
⑦⑥⑦口 |③-④-|
③②⑤④ |-⑤⑥-|
口①①口 |⑦-⑧-|
64
⑥⑧口⑦ |①--②|
⑧⑤⑦③ |③-④-|
口④④② |-⑤⑥-|
口①①口 |⑦-⑧-|
65
⑤口③⑤ |①--②|
口⑥⑦口 |③-④-|
⑥②口⑦ |-⑤--|
①④④① |⑥-⑦-|
66
口⑧口⑧ |①--②|
⑦口⑦③ |③-④-|
⑤⑥②口 |-⑤⑥-|
①④④① |⑦-⑧-|
67
口⑧口⑧ |①--②|
⑦⑥⑦口 |③-④-|
④⑤②④ |-⑤⑥-|
①③口① |⑦-⑧-|
68
④⑦①⑦ |①--②|
口⑤⑥① |③-④-|
④口②口 |⑤⑥--|
⑧③⑧口 |⑦-⑧-|
69
口口口口 |①--②|
①③口② |--③-|
③①②口
口口口口

⑤⑤口口
口口④口
口⑧口⑦ |④⑤-⑥|
口⑥口⑦ |⑦-⑧-|
70
④⑧④⑧ |①--②|
⑦③⑦口 |③-④-|
②口口⑤ |-⑤⑥-|
①口①⑥ |⑦-⑧-|
71
口⑧④⑧ |①--②|
⑦⑥⑦口 |③-④-|
③②⑤④ |-⑤⑥-|
口①①口 |⑦-⑧-|
72
⑥⑧口⑦ |①--②|
⑧⑤⑦③ |③-④-|
口④④② |-⑤⑥-|
口①①口 |⑦-⑧-|
73
⑤口③⑤ |①--②|
口⑥⑦口 |③-④-|
⑥②口⑦ |-⑤--|
①④④① |⑥-⑦-|
74
口口口② |①---|
口口口口 |--②-|
口①①口
口口口口

口口口口
口口口口
口④口口 |----|
③口口口 |--③④|
75
口③②口 |①---|
口口①口 |--②-|
口口口口 |----|
口口口口 |③---|
76
口口口口 |①---|
口⑥①口 |②-③④|
口②⑦口 |⑤---|
口⑤④③ |⑥-⑦-|
77
口口口口 |①-②-|
③⑤④② |--③-|
①口口口 |--④-|
口口口口 |⑤---|
78
②口口② |①---|
口口口口 |----|
口①①口 |②---|
口口口口 |----|
79
③③②② |①---|
口①①口 |----|
口口口口 |②---|
口口口口 |③---|
80
④④③③ |①---|
口②②口 |--②-|
口①①口 |--③-|
口口⑤⑤ |④-⑤-|
81
口口口口 |①-②-|
口③③口 |③--④|
②④④口
①①口口

口口口口
⑤口口口
口口口⑥ |--⑤-|
⑦口口口 |⑥-⑦-|
82
④③②① |①②③④----|
口口口⑤ |⑤-⑥-|
口口口口
口⑥⑥口

口⑩口⑩
⑨口⑨口
⑦⑧口口 |-⑦⑧-|
口口口口 |⑨-⑩-|
83
口⑧口⑧ |①--②|
⑦⑥⑦口 |③-④-|
④⑤②④ |-⑤⑥-|
①③口① |⑦-⑧-|
84
④⑦①⑦ |①--②|
口⑤⑥① |③-④-|
④口②口 |⑤⑥--|
⑧③⑧口 |⑦-⑧-|
85
口口口口 |①--②|
①③口② |--③-|
③①②口
口口口口

⑤⑤口口
口口④口
口⑧口⑦ |④⑤-⑥|
口⑥口⑦ |⑦-⑧-|
86
④⑧④⑧ |①--②|
⑦③⑦口 |③-④-|
②口口⑥ |-⑤⑥-|
①口①⑤ |⑦-⑧-|
87
口⑧④⑧ |①--②|
⑦⑥⑦口 |③-④-|
③②⑤④ |-⑤⑥-|
口①①口 |⑦-⑧-|
88
⑥⑧口⑦ |①--②|
⑧⑤⑦③ |③-④-|
口④④② |-⑤⑥-|
口①①口 |⑦-⑧-|
89
⑤口③⑤ |①--②|
口⑥⑦口 |③-④-|
⑥②口⑦ |(150)-⑤--|
①④④① |⑥-⑦-|
90
口口口口 |①---|
口口口口 |----|
口①口口 |----|
口口口口 |----|
最終更新:2021年06月21日 05:05