アットウィキロゴ
Pee-wee Boogie
ARM

EXTREME

Level: 9.8
BPM: 45-180
Notes: 793

1
口口口口 |(165)----|
口口口口 |----|
口口口口 |----|
口口口口 |----|
2
口口口口 |①---|
口①①口 |----|
口口口口 |----|
口口口口 |----|
3
口口口口 |----|
口口口③ |----|
①②口口 |----①-|
口口口口 |②---③-|
4
⑦口口口 |----①-|
⑤⑥口口 |②---③-|
③④口口 |④---⑤-|
①②口口 |⑥---⑦-|
5
口口口② |------|
口口①④ |----①-|
口口口口 |②-----|
口口③口 |③---④-|
6
口口⑥口 |---①|
口口③口 |②---③-|
①②④⑤ |----④-|
口口口口 |⑤---⑥-|
7
口④⑤① |①-----|
口口口口 |------|
口口口口 |---②|
②③口口 |③---④⑤|
8
口口口① |①-----|
口③⑤⑤ |②---③-|
②口口口 |----④-|
口口④口 |-----⑤--|
9
口口④② |①---②-|
口口口口 |----③-|
口口③① |----④-|
口口口口 |------|
10
口口⑤口 |①---②③|
⑥②③④ |④---⑤-|
①口口口 |----⑥-|
口⑦⑧口 |----------⑦--⑧--|
11
②口口口 |①----②--|
口③口口 |----③-|
口②口口
③口口①

口⑥口口 |-----④--|
口口口口 |⑤---⑥-|
口⑥④⑤
口口口口
12
口口口口 |------|
②口口② |------|
口口口口 |①-----|
①口口① |----②-|
13
口口③③ |------|
口④口⑤ |①---②-|
①口②口 |③-----|
口口口口 |④----⑤--|
14
④③口口 |--①-|
③④⑦⑦ |②-③-|
②②⑥⑥ |④-⑤-|
①①⑤⑤ |⑥-⑦-|
15
④②口口 |①-②-|
②④口口 |③-④-|
③①⑥⑥ |⑤-⑥-|
①③⑤⑤ |----|
16
口②口③ |①---|
①口⑤⑤ |②--③|
口口口口 |----④-|
口口④④ |----⑤-|
17
口口口口 |----|
②口③④ |----①-|
口口口口 |②----③--|
①口⑤⑤ |④---⑤-|
18
口口口口 |-------①--②--③--|
口⑤⑥口 |④----------⑤----|
①②③④ |⑥---⑦-|
口⑦⑧口 |⑧---⑨-|

口口口口
口口口口
口⑨口口
口口口口
19
⑤口口⑤ |①---|
③口口③ |②---|
②口①② |③---④-|
④口口④ |----⑤-|
20
口口口口 |----|
口口③③ |①---|
①①口口 |②---③-|
④口②② |-----④--|
21
口口口口 |①---|
口口③③ |②---③-|
④①⑥⑥ |-----④--|
口⑤②② |-⑤---------⑥----|
22
口口口口 |----|
口口口口 |----|
口口口口 |----|
口口口口 |----|
23
口口口口 |①--②|
口②③④ |-----③--------④-|
①①①① |---------⑤------|
口⑤⑥⑦ |---⑥----------⑦-|
24
口口口口 |(163)----|
口口口口 |(65)①---|
①①①① |----|
口口口口 |----|
25
③口④④ |(180)①-②-|
口⑧②② |③-④-|
⑤口⑨⑦ |⑤-⑥⑦|
①口⑥⑩ |-⑧⑨⑩|
26
③口④④ |①-②-|
①⑧②② |③-④-|
⑤口⑨⑦ |⑤-⑥⑦|
口口⑥⑩ |-⑧⑨⑩|
27
口口④④ |①-②-|
③⑧②② |③-④-|
⑤口⑨⑦ |⑤-⑥⑦|
①口⑥⑩ |-⑧⑨⑩|
28
①②⑧⑦ |①②③④|
⑬⑭④③ |⑤⑥⑦⑧|
⑨⑩⑫⑪ |⑨⑩⑪⑫|
⑤⑥口口 |-⑬⑭-|
29
①口④④ |①-②-|
口⑧②② |③-④-|
⑤口⑨⑦ |⑤-⑥⑦|
③口⑥⑩ |-⑧⑨⑩|
30
①口④④ |①-②-|
口⑧②② |③-④-|
⑤口口⑦ |⑤-⑥⑦|
③口⑥口 |-⑧--|
31
④⑤⑥⑦ |①-②③|
口口②③ |④⑤⑥⑦|
⑧⑨⑩⑪ |⑧⑨⑩⑪|
口①口口 |⑫⑬⑭⑮|

口口口口
口口口口
口口口口
⑫⑬⑭⑮
32
⑤⑥⑦⑧ |①②③④|
①②③④ |⑤⑥⑦⑧|
⑨口⑩⑩ |⑨-⑩-|
口口口口 |----|
33
③③⑨⑤ |①-②-|
①①⑧④ |③-④⑤|
口口⑥⑥ |--⑥-|
⑦⑦②② |⑦-⑧⑨|
34
口口口口 |--①-|
③③⑤⑤ |②-③-|
②②④④ |----|
口口①① |④-⑤-|
35
①①⑤⑤ |①---|
②③口口 |②---|
口口④④ |③--④|
③②口口 |--⑤-|
36
⑥口⑧口 |①②-③|
口⑤口④ |-④-⑤|
①⑦口⑨ |⑥-⑦-|
口②口③ |⑧-⑨-|
37
⑧⑧⑥⑥ |①-②-|
③③②② |③-④⑤|
⑦⑦⑤口 |--⑥-|
①①④口 |⑦-⑧-|
38
口口⑤⑤ |--①-|
②②口口 |②-③-|
口口③③ |----|
①①④④ |④-⑤-|
39
③③⑧⑧ |①-②-|
⑤⑤②② |③-④-|
⑦⑦④④ |⑤-⑥-|
①①⑥⑥ |⑦-⑧-|
40
③口口口 |①②③④|
⑦口④② |⑤⑥⑦⑧|
口口⑥⑧
①⑤口口

口⑮⑫口 |⑨⑩⑪⑫|
口⑨口⑯ |⑬⑭⑮⑯|
⑬⑪口口
口口⑩⑭
41
①口⑤⑤ |①-②-|
④④口口 |--③-|
⑥⑥③口 |④-⑤-|
②②⑦⑦ |⑥-⑦-|
42
①口⑨⑨ |①②-③|
⑥⑥⑤② |-④-⑤|
口口③④ |⑥-⑦-|
⑦⑦⑧⑧ |⑧-⑨-|
43
②②口口 |①--②|
③③口口 |--③-|
①①口口
口口口口

口口⑥⑥ |④-⑤-|
口口口口 |⑥-⑦-|
⑦⑦⑤⑤
④④口口
44
①②口口 |①-②-③-|
口口③④ |④---|
口口口口 |⑤---|
⑤⑤⑤⑤ |----|
45
口口②③ |①-②③|
①口⑧⑨ |-④⑤⑥|
⑦④⑤⑥ |⑦-⑧⑨|
口口⑩⑪ |-⑩⑪-|
46
①②③④ |①②③④|
⑤⑥⑪⑫ |⑤⑥⑦⑧|
⑨⑩⑦⑧ |⑨⑩⑪⑫|
口口⑬⑬ |--⑬-|
47
②⑤⑤② |--①-|
④⑦⑦④ |②-③-|
③⑥⑥③ |④-⑤-|
①①口口 |⑥-⑦-|
48
口口口口 |(164)①---|
口口口口 |----|
口②②口 |②---|
①口口① |----|
49
口口口⑤ |①--②|
②②口口 |-------③--------|
④④③③ |④--------⑤------|
口①①口

口口口口 |⑥-⑦--⑧------|
口口口口
口口口口
⑥⑦⑧口
50
口口口口 |(162)①------②----|
②①④口 |③----④-----⑤----|
⑥③⑧⑤ |⑥-⑦---⑧----⑨----|
口⑦口⑨

⑩口口口 |⑩-⑪-⑫-|
口⑪口口
口口口口
口口⑫口
51
口口口口 |(150)①---------②--③--|
②口④① |④-⑤-⑥-|
⑥③⑧⑤ |(140)⑦-⑧--⑨-|
口⑦口⑨

口口口口 |(45)----------------------------------------⑩----⑪--|
口口口口
口⑩⑪口
口口口口
52
口口口② |(155)①--②|
口⑥⑦口 |--③-|
口⑤⑤① |④---|
③口口④ |⑤---------⑥----⑦--|
53
②④口③ |①----②--|
口口口① |--③---|
口口⑥口 |④---|
⑤口口⑤ |(130)⑤----⑥|
54
口口口口 |(150)①----------②----|
口②口③ |-----③------|
⑦⑧⑨① |(110)-④-------⑤------⑥-------|
④⑤⑥口 |(90)⑦-------⑧--------⑨------|
55
口口口口 |①--②|
④①①口 |③-④-|
口口口口
②口③③

口口口口 |(140)⑤--⑥|
口口⑤⑤ |⑦----⑧----⑨----⑩------⑪-|
口⑥⑦⑧
⑨⑩⑪口
56
口口口⑩ |(145)---①-----②------③-----④-|
②③④⑤ |----⑤------⑥-----⑦------|
⑥⑦⑧⑨ |⑧----⑨------|
口口口① |--⑩-|
57
口口口口 |(120)----|
口口口口 |----|
口口口口 |----|
口口口口 |----|
58
口口口口 |(170)①---|
口口口口 |----|
口②②口 |②---|
口①①口 |----|
59
口口口口 |①---|
口①①口 |-----------②----|
③②④⑤ |③----------④----|
口⑥⑥口 |⑤---⑥-|
60
口口口口 |----|
⑤口①② |-----------①----|
⑤口④③ |②----------③----|
口口口口 |④--⑤|
61
口⑦口口 |----①-|
口③④口 |②----------③----|
口⑤⑥口 |④----⑤--|
口①②口 |⑥----⑦--|
62
口口①口 |①----------②----|
④⑨口④ |-③-------④------|
⑤⑥⑦⑧ |-------⑤-⑥---⑦--|
口②③口 |-⑧----------⑨---|
63
口口②② |①---|
⑦口⑥口 |②----------③----|
⑤口④口 |④--⑤|
③口①① |⑥---⑦-|
64
口口①口 |①---|
口⑦口⑥ |②----③--|
口⑤口④ |④--⑤|
口③②② |⑥---⑦-|
65
口口口① |①---|
⑦口⑥口 |②----③--|
⑤口④口 |④----------⑤----|
③口②② |⑥---⑦-|
66
口口①① |①---|
口口口口 |②---|
口④②② |③---④-|
口口③③

⑥口⑥口 |⑤--⑥|
口⑤口口
口口口口
口口口口
67
⑤③⑤③ |-------------①----|
口口②口 |--②------③--|
口口①口 |-------------④----|
④口④口 |-----⑤--|
68
口口口口 |-----①--|
①②口口 |②----③--|
口口③④ |④--------⑤------|
⑤⑥⑦口 |⑥-⑦-|
69
①③①③ |①---|
口口口口 |②-③-|
口口②口
口口口口

⑤口⑤口 |----④---|
口口口口 |----⑤-|
口口口口
口④口口
70
口口口口 |-------------①----------|
①③④② |②------------③----------|
①③④② |④---|
⑤⑥⑦⑧ |-⑤⑥⑦⑧-|
71
口口②口 |①---②-|
①④⑥③ |③---④-|
⑤⑧口⑦ |⑤---⑥-|
口口口口 |⑦---⑧-|
72
口④⑥口 |①---②-|
⑤⑧口⑦ |③---④-|
口口②口 |⑤---⑥-|
①口口③ |⑦---⑧-|
73
口口口口 |①---|
⑦⑧⑦口 |②------③--④-|
①②①口 |⑤-⑥---|
③④⑤⑥ |⑦---⑧-|
74
⑤⑥口口 |①---②---③----④----⑤-----|
⑨口⑨⑦ |⑥----------⑦----|
①②③④ |⑧----⑨--|
口⑧口口 |----|
75
口①口① |①---|
⑨②口口 |②------③--④-|
③④⑤⑥ |⑤-⑥------⑦--|
口⑦⑧⑧ |⑧----------⑨----|
76
口口口口 |-①----------|
口口口① |----|
口口口口 |----|
口口口口 |----|
77
口口口口 |----|
口口口口 |----|
口口口口 |----|
口口口口 |----|
78
③口④④ |(180)①-②-|
口⑧②② |③-④-|
⑤口⑨⑦ |⑤-⑥⑦|
①口⑥⑩ |-⑧⑨⑩|
79
③口④④ |①-②-|
①⑧②② |③-④-|
⑤口⑨⑦ |⑤-⑥⑦|
口口⑥⑩ |-⑧⑨⑩|
80
口口④④ |①-②-|
③⑧②② |③-④-|
⑤口⑨⑦ |⑤-⑥⑦|
①口⑥⑩ |-⑧⑨⑩|
81
③口④④ |①-②-|
口⑧②② |③-④-|
⑤口⑨⑦ |⑤-⑥⑦|
①口⑥⑩ |-⑧⑨⑩|
82
③口④④ |①-②-|
①⑧②② |③-④-|
⑤口⑨⑦ |⑤-⑥⑦|
口口⑥⑩ |-⑧⑨⑩|
83
口口④④ |①-②-|
③⑧②② |③-④-|
⑤口⑨⑦ |⑤-⑥⑦|
①口⑥⑩ |-⑧⑨⑩|
84
③口④④ |①-②-|
口⑧②② |③-④-|
⑤口⑨⑦ |⑤-⑥⑦|
①口⑥⑩ |-⑧⑨⑩|
85
③口④④ |①-②-|
①⑧②② |③-④-|
⑤口⑨⑦ |⑤-⑥⑦|
口口⑥⑩ |-⑧⑨⑩|
86
口①口⑥ |①②③④|
③口④② |⑤⑥⑦⑧|
⑦⑤口口
口口⑧口

⑮口⑩口 |⑨⑩⑪⑫|
口⑪口⑯ |⑬⑭⑮⑯|
口口⑫口
⑨⑬口⑭
87
口②口② |①---|
①口②口 |②---|
口②口② |----|
口口②口 |----|
最終更新:2021年06月21日 05:08