アットウィキロゴ
chaplet [ 2 ]
DJ TOTTO

EXTREME

Level: 10.3
BPM:200
Notes(hold): 752(74)

1
口口口口 |----|
口口口口 |----|
口口口口 |----|
口口口口 |----|
2
口口口口 |----|
口口口口 |----|
口口口口 |----|
口口口口 |----|
3
口口口口 |①-②-|
①口③① |③-④-|
∧口口口 |⑤-⑥-|
口口②④ |⑦-⑧-|

口口口口
口口口口
⑤⑥⑦⑧
口口口口
4
口口⑤口 |①-②-|
⑦⑥③① |③-④-|
口口⑦口 |⑤-⑥-|
口口②④ |⑦---|
5
④②口口 |①-②-|
口口口V |③-④-|
①③口① |⑤-⑥-|
口口口口 |⑦-⑧-|

口口口口
⑧⑦⑥⑤
口口口口
口口口口
6
④②口口 |①-②-|
口⑦口口 |③-④-|
①③⑥⑦ |⑤-⑥-|
口⑤口口 |⑦---|
7
口口口口 |①-②-|
口口②④ |③-④-|
V口口口 |⑤-⑥-|
①口③① |⑦-⑧-|

口口口口
口口口口
⑤⑥⑦⑧
口口口口
8
口口口口 |①-②-|
口⑤②④ |③-④-|
口口⑥口 |⑤-⑥-|
⑦⑦③① |⑦---|
9
①③口① |①-②-|
口口口∧ |③-④-|
④②口口 |⑤-⑥-|
口口口口 |⑦-⑧-|

口口口口
⑧⑦⑥⑤
口口口口
口口口口
10
①③⑤口 |①-②-|
口口∧口 |③-④-|
④②口口 |⑤---|
口口口口 |⑥-⑦⑧|

⑦口⑥⑥
口⑧口口
口口口口
口口口口
11
口②口口 |①---|
②口口口 |----|
口口①口 |②---|
口口∧口 |----|
12
口口③③ |①---|
口口口口 |②---|
①②口口 |③---|
口口口口 |----|
13
口②口口 |①---|
②①口口 |----|
口口口口 |②---|
口①口口 |----|
14
口③③口 |①---|
口口口口 |②---|
①②③口 |③---|
口口口口 |----|
15
口②②口 |①---|
①口口① |----|
∧口口口 |②---|
口口口口 |③---|

口口口口
③口口口
口口口口
口口口口
16
口口③口 |①---|
口③口① |②---|
①②口∧ |③---|
口口口口 |④---|

口口口口
口口口④
口口口口
口口口口
17
①口口① |①---|
∧口②口 |----|
口②口口 |②---|
口口口口 |③---|

③口口口
口口口口
口口口口
口口口口
18
口口口① |①---|
口③口∧ |②---|
口口③口 |③---|
①②口口 |----|
19
口①①① |①---|
口口口口 |----|
口口口口 |②---|
②口口② |----|
20
④⑩⑤⑨ |①-②-③-|
⑩⑦②⑤ |④---⑤-|
⑥③⑧① |⑥-⑦-⑧-|
口口口口 |⑨---⑩-|
21
⑥口⑨口 |①---②-|
口⑦③⑩ |③-④-⑤-|
⑧④⑪口 |⑥-⑦-⑧-|
②口⑤① |⑨-⑩-⑪-|
22
口①⑩⑦ |①-②-③-|
⑪⑧④口 |④-⑤-⑥-|
口⑤口② |⑦-⑧-⑨-|
⑥③⑫⑨ |⑩-⑪-⑫-|
23
②口口口 |①---|
口③口① |----②③|
口口④口 |④---|
口口口口 |----|
24
⑤⑤⑩⑩ |①-②-③-|
①⑧③⑥ |④---⑤-|
口②⑦口 |⑥-⑦-⑧-|
⑨口口④ |⑨---⑩-|
25
⑩⑥口口 |①-②-③-|
①⑪⑤⑦ |④-⑤-⑥-|
⑫②⑧④ |⑦-⑧-⑨-|
口⑨③口 |⑩-⑪-⑫-|
26
⑥⑦①① |①---|
④口⑤⑤ |②-③-④-|
口③口口 |⑤---|
口口②口 |⑥-⑦-⑧-|

口口⑧口
口口口口
口口口口
口口口口
27
口口口① |①-②-③-|
⑨②⑥口 |④-⑤-⑥-|
⑦⑤口⑧ |⑦-⑧-⑨-|
④⑩⑩③ |⑩---|
28
①⑤④口 |①-②-③-|
口③口① |④---|
∧⑦②⑥ |⑤-⑥-⑦-|
口口口⑧ |⑧---|
29
①口⑥口 |①---②-|
口⑨③② |③-④-⑤-|
⑦口⑧⑩ |⑥-⑦-⑧-|
④①⑤口 |⑨-⑩-⑪-|

口口口口
口口口口
口口口口
口⑪口口
30
口④⑤① |①-②-③-|
①口③∧ |④---|
⑥②⑦口 |⑤-⑥-⑦-|
口口口口 |⑧---|

口口口⑧
口口口口
口口口口
⑧口口口
31
①<口口 |①---②-|
口③②① |--③---|
口口口口 |④---⑤-|
口③②① |--⑥---|

④④⑤⑥
④<口口
口④⑤⑥
口口口口
32
口口口口 |①---|
①②③④ |--②-③-|
①<口口 |④---|
口口口口 |⑤---|

口⑤⑤口
口口口口
⑤口口口
口口口口
33
口⑤⑤口 |①---|
④③②口 |--②-③-|
口口口① |④---|
口口口口 |⑤---|
34
口⑧⑦⑥ |①---|
⑤⑤口④ |②-③-④-|
口口③口 |⑤---|
①②口① |⑥-⑦-⑧-|
35
①口口口 |①-②-③-|
⑩⑥②⑨ |④-⑤-⑥-|
⑧⑪⑤⑦ |⑦-⑧-⑨-|
③口⑫④ |⑩-⑪-⑫-|
36
①口口① |①---|
口口口口 |②-③-④-|
∧口口∧ |⑤---|
口口口口 |⑥-⑦-⑧-|

②>⑤②
口④口口
口口③口
口口口口

口口⑥口
口口口口
口⑧口口
⑦口口口
37
②口⑦⑥ |①---②-|
⑥⑦①③ |③-④-⑤-|
⑧口④口 |⑥---⑦-|
⑧⑤口口 |--⑧---|
38
口口口口 |①---|
口口口V |②-③-④-|
口口口① |⑤---|
口>①口 |⑥-⑦-⑧-|

口⑤<口
口口④口
口③口②
口口②口

口⑥口口
口口口口
口口⑧口
口口口⑦
39
⑥⑦口② |①---②-|
③①⑦⑥ |③-④-⑤-|
口④口⑧ |⑥---⑦-|
口口⑤⑧ |--⑧---|
40
口口口口 |①---|
V口口口 |----|
①口口口 |----|
口①<口 |②-③-④-|

口③④口
口口口口
②口口口
口②口口
41
④口口① |①-②-③-|
⑦⑤②⑦ |④-⑤-⑥-|
⑧③⑥⑧ |⑦---⑧-|
⑨口口⑨ |--⑨---|
42
口①①口 |①---|
口口口口 |----|
口口口口 |----|
口∧∧口 |②---|

口②②口
口口口口
口口口口
口口口口
43
口口口口 |①---|
口口口口 |②---|
口①①口 |③---|
口∧∧口 |④---|

口口口口
③口口③
∧②②∧
口口口口

口口口口
④口口④
口口口口
口口口口
44
①口口① |①---|
口口口口 |②-③-④-|
∧口口∧ |⑤---|
口口口口 |⑥-⑦-⑧-|

②⑤<②
口口④口
口③口口
口口口口

口⑥口口
口口口口
口口⑧口
口口口⑦
45
⑥⑦口② |①---②-|
③①⑦⑥ |③-④-⑤-|
口④口⑧ |⑥---⑦-|
口口⑤⑧ |--⑧---|
46
口口口口 |①---|
V口口口 |②-③-④-|
①口口口 |⑤---|
口①<口 |⑥-⑦-⑧-|

口>⑤口
口④口口
②口③口
口②口口

口口⑥口
口口口口
口⑧口口
⑦口口口
47
②口⑦⑥ |①---②-|
⑥⑦①③ |③-④-⑤-|
⑧口④口 |⑥---⑦-|
⑧⑤口口 |--⑧---|
48
口口口口 |①---|
口口口V |----|
口口口① |----|
口>①口 |②-③-④-|

口④③口
口口口口
口口口②
口口②口
49
①口口④ |①-②-③-|
⑩②⑤⑦ |④-⑤-⑥-|
⑧⑥③⑪ |⑦-⑧-⑨-|
⑫口口⑨ |⑩-⑪-⑫-|
50
①①口口 |①---|
口口口口 |----|
口口口口 |②---|
∧∧口口 |--③-④-|

②②③口
口④口口
口口口口
口口口口
51
口口⑥② |①---|
V口⑦③ |----|
①口⑧④ |②③④⑤|
口口⑨⑤ |⑥⑦⑧⑨|
52
②V口口 |①---|
口①口口 |----|
①①口口 |②---|
口∧口口 |----|
53
口口V② |①---|
口①①口 |----|
口①①口 |②---|
口口∧口 |----|
54
①口口 |①---|
V口①口 |----|
①②①口 |②---|
口口口口 |----|
55
口①口口 |①---|
口口口口 |----|
①口口V |②---|
口口口① |----|

口口口口
口口V口
口口②口
口口口②
56
口V②口 |①---|
口①口口 |----|
口口①② |②---|
口口口口 |----|
57
口②口口 |①---|
口①①口 |----|
②口∧口 |②---|
口口口口 |----|
58
口口口口 |①---|
②口①口 |----|
口口①< |②---|
口②口口 |----|
59
口口口口 |①---|
口口口口 |----|
①①口 |②---|
口口口口 |③-④⑤|

口口②口
口口∧口
口②口口
口口口口

④口③口
口⑤口口
口口口口
口口口口
60
口②口口 |①---|
②口口口 |----|
口口①口 |②---|
口口∧口 |----|
61
口口③③ |①---|
口口口口 |②---|
①②口口 |③---|
口口口口 |----|
62
口②口口 |①---|
②①口口 |----|
口口口口 |②---|
口①口口 |----|
63
口③③口 |①---|
口口口口 |②---|
①②③口 |③---|
口口口口 |----|
64
口②②口 |①---|
①口口① |----|
∧口口口 |②---|
口口口口 |③---|

口口口口
③口口口
口口口口
口口口口
65
口口③口 |①---|
口③口① |②---|
①②口∧ |③---|
口口口口 |④---|

口口口口
口口口④
口口口口
口口口口
66
①口口① |①---|
∧口②口 |----|
口②口口 |②---|
口口口口 |----|

①口口口 |①---|
②①口② |----|
口口①口 |②---|
②口口② |----|
67
④⑩⑤⑨ |①-②-③-|
⑩⑦②⑤ |④---⑤-|
⑥③⑧① |⑥-⑦-⑧-|
口口口口 |⑨---⑩-|
68
⑥口⑨口 |①---②-|
口⑦③⑩ |③-④-⑤-|
⑧④⑪口 |⑥-⑦-⑧-|
②口⑤① |⑨-⑩-⑪-|
69
口①⑩⑦ |①-②-③-|
⑪⑧④口 |④-⑤-⑥-|
口⑤口② |⑦-⑧-⑨-|
⑥③⑫⑨ |⑩-⑪-⑫-|
70
②口口口 |①---|
口③口① |----②③|
口口④口 |④---|
口口口口 |----|
71
⑤⑤⑩⑩ |①-②-③-|
①⑧③⑥ |④---⑤-|
口②⑦口 |⑥-⑦-⑧-|
⑨口口④ |⑨---⑩-|
72
口⑦口口 |①-②-③-|
①⑩②⑥ |④-⑤-⑥-|
③⑤口⑧ |⑦-⑧-⑨-|
⑫⑨⑪④ |⑩-⑪-⑫-|
73
②②口口 |①---|
口口①< |----|
口>①口 |②---|
口口口口 |----|
74
口③③③ |①---|
口口③口 |----|
②口③口 |②---|
②口①① |③---|
75
V口口⑧ |①-②-③-|
①②口① |④---|
⑤④⑦③ |⑤-⑥-⑦-|
口⑥口口 |⑧---|
76
①口⑥口 |①---②-|
①⑨③② |③-④-⑤-|
⑦口⑧⑩ |⑥-⑦-⑧-|
④⑪⑤口 |⑨-⑩-⑪-|
77
口④⑤① |①-②-③-|
①口③∧ |④---|
⑥②⑦口 |⑤-⑥-⑦-|
口口口口 |⑧---|

口口口⑧
口口口口
口口口口
⑧口口口
78
①<口口 |①---②-|
口③②① |--③---|
口口口口 |④---⑤-|
口③②① |--⑥---|

④④⑤⑥
④<口口
口④⑤⑥
口口口口
79
口口口口 |①---|
①②③④ |--②-③-|
①<口口 |④---|
口口口口 |⑤---|

口⑤⑤口
口口口口
⑤口口口
口口口口
80
口⑤⑤口 |①---|
④③②口 |--②-③-|
口口口① |④---|
口口口口 |⑤---|
81
口⑧⑦⑥ |①---|
⑤⑤口④ |②-③-④-|
口口③口 |⑤---|
①②口① |⑥-⑦-⑧-|
82
①口⑩口 |①-②-③-|
口⑥②⑨ |④-⑤-⑥-|
⑧⑪⑤⑦ |⑦-⑧-⑨-|
③口口④ |⑩-⑪-⑫-|

⑫口口口
口口口口
口口口口
口口口口
83
口口口口 |①---|
口VV口 |----|
口口口口 |②---|
口①①口 |----|

口口口口
②口口口
口口口口
∧②②口
84
口③②① |①-②-③-|
口⑥⑤④ |④-⑤-⑥-|
口⑨⑧⑦ |⑦-⑧-⑨-|
口⑫⑪⑩ |⑩-⑪-⑫-|
85
④③②① |①-②-③-|
①口⑤⑤ |④-⑤---|
⑥⑦⑧⑨ |⑥-⑦-⑧-|
⑩⑩口口 |⑨-⑩---|
86
④⑩⑦① |①-②-③-|
⑧②⑤口 |④-⑤-⑥-|
⑥口⑨⑪ |⑦-⑧-⑨-|
⑫口口③ |⑩-⑪-⑫-|
87
口口口口 |①---|
口VV口 |----|
口口口口 |②---|
口①①口 |----|

口口口口
口口口②
口口口口
口②②∧
88
①②③口 |①-②-③-|
④⑤⑥⑫ |④-⑤-⑥-|
⑦⑧⑨口 |⑦-⑧-⑨-|
⑩⑪⑫口 |⑩-⑪-⑫-|
89
④②⑤① |①-②-③-|
④⑥⑤口 |④---⑤-|
⑨⑧⑩③ |⑥-⑦-⑧-|
⑨口⑩⑦ |⑨---⑩-|
90
⑦①口④ |①-②-③-|
口⑧⑤② |④-⑤-⑥-|
⑨口⑫⑥ |⑦-⑧-⑨-|
⑪③口⑩ |⑩-⑪-⑫-|
91
口V①口 |①---|
①><① |----|
口①∧口 |----|
口口口口 |----|
92
口口口口 |----|
口口口口 |----|
口口口口 |----|
口口口口 |----|
93
口口口口 |----|
口口口口 |----|
口口口口 |----|
口口口口 |----|
94
口口口口 |----|
口口口口 |----|
口口口口 |----|
口口口口 |----|
95
口口①口 |①---|
①口口① |----|
口①口口 |----|
口口口口 |----|
最終更新:2019年11月14日 12:48