アットウィキロゴ
Wowie Zowie!
Hommarju

BASIC

Level: 5
BPM: 128
Notes: 349

1
口口口口 |----|
口口口口 |----|
口口口口 |----|
口口口口 |----|
2
口口口口 |①---|
口口口口 |②---|
口口口口 |③---|
①②③④ |④---|
3
口口口口 |①---|
口口口口 |②---|
④③②① |③---|
口口口口 |④---|
4
口口口口 |①---|
①②③④ |②---|
口口口口 |③---|
口口口口 |④---|
5
④③②① |①---|
口口口口 |②---|
口口口口 |③---|
口口口口 |④---|
6
口口口口 |①---|
口①①口 |----|
口②②口 |②---|
口口口口 |----|
7
口口口口 |①---|
①口口① |----|
②口口② |②---|
口口口口 |----|
8
口口口口 |①---|
口①①口 |----|
口②②口 |②---|
口口口口 |----|
9
口口口口 |①---|
①口口① |----|
②口口② |②---|
口口口口 |----|
10
口口口口 |①---|
③②③② |②---|
口口口口 |③---|
口④①口 |④---|
11
口口口口 |①---|
③②③② |②---|
口口口口 |③---|
口④①口 |④---|
12
口口口口 |①---|
③②③② |②---|
口口口口 |③---|
口④①口 |④---|
13
口口口口 |①---|
③②③② |②---|
口口口口 |③---|
口④①口 |④---|
14
③②③② |①---|
口口口口 |②---|
口④①口 |③---|
口口口口 |④---|
15
③②③② |①---|
口口口口 |②---|
口④①口 |③---|
口口口口 |④---|
16
口口口口 |①-②-|
口②①口 |③-④-|
⑧④③⑦ |⑤-⑥-|
口⑥⑤口 |⑦-⑧-|
17
口①①口 |①---|
③③③③ |②---|
口②②口 |③---|
口口口口 |----|
18
口口口口 |①---|
口口口② |②---|
口口口口
口①①口

口口口口
口口口口
口口口③ |③---|
口口④口 |④---|
19
口口口口 |①---|
①③③口 |②---|
②④④口 |③---|
口口口口 |④---|
20
口口口口 |①---|
口口口② |②---|
口口口口
口①①口

口口口口
口口口口
口口口③ |③---|
口口④口 |④---|
21
口②②口 |①---|
①③③口 |②---|
口④④口 |③---|
口口口口 |④---|
22
口口口口 |----|
口口口① |①---|
口口口② |②---|
口口③口 |③---|
23
口口口口 |①---|
①③③口 |②---|
②④④口 |③---|
口口口口 |④---|
24
③④②① |①---|
口口口口 |②---|
口口口口 |③---|
口口口口 |④---|
25
口口口口 |①---|
③①①③ |②---|
④②②④ |③---|
口口口口 |④---|
26
口口口口 |①---|
③②③② |②---|
口口口口 |③---|
口④①口 |④---|
27
口口口口 |①---|
③②③② |②---|
口口口口 |③---|
口④①口 |④---|
28
口口口口 |①---|
③②③② |②---|
口口口口 |③---|
口④①口 |④---|
29
口口口口 |①---|
③②③② |②---|
口口口口 |③---|
口④①口 |④---|
30
③②③② |①---|
口口口口 |②---|
口④①口 |③---|
口口口口 |④---|
31
③②③② |①---|
口口口口 |②---|
口④①口 |③---|
口口口口 |④---|
32
口口口口 |①-②-|
口②①口 |③-④-|
⑧④③⑦ |⑤-⑥-|
口⑥⑤口 |⑦-⑧-|
33
口①①口 |①---|
③③③③ |②---|
口②②口 |③---|
口口口口 |----|
34
③③①① |①---|
④④②② |②---|
口口口口 |③---|
口口口口 |④---|
35
口口口口 |①---|
口口口口 |②---|
④④①① |③---|
③③②② |④---|
36
③③①① |①---|
④④②② |②---|
口口口口 |③---|
口口口口 |④---|
37
口口口口 |①---|
③口口③ |②---|
④②②④ |③---|
口①①口 |④---|
38
③③①① |①---|
④④②② |②---|
口口口口 |③---|
口口口口 |④---|
39
口口口口 |①---|
口口口口 |②---|
④④①① |③---|
③③②② |④---|
40
③③①① |①---|
④④②② |②---|
口口口口 |③---|
口口口口 |④---|
41
口口口口 |①---|
③口口③ |②---|
④②②④ |③---|
口①①口 |④---|
42
口口口① |①---|
口口口② |②---|
口口口③ |③---|
口口口④ |④---|
43
①口口口 |①---|
②口口口 |②---|
③口口口 |③---|
④口口口 |④---|
44
口口①口 |①---|
口口②口 |②---|
口口③口 |③---|
口口④口 |④---|
45
口①口口 |①---|
口②口口 |②---|
口③口口 |③---|
口④口口 |④---|
46
口②①口 |①-②-|
口④③口 |③-④-|
口⑥⑤口 |⑤-⑥-|
口⑧⑦口 |⑦-⑧-|
47
②口口① |①-②-|
④口口③ |③-④-|
⑥口口⑤ |⑤-⑥-|
⑧口口⑦ |⑦-⑧-|
48
⑩④①⑦ |①②-③|
⑧②⑤⑪ |④⑤-⑥|
⑫⑥③⑨ |⑦⑧-⑨|
口口口口 |⑩⑪-⑫|
49
②②②② |①---|
口①①口 |----|
口①①口 |②---|
口口口口 |----|
50
口口口② |①---|
口口口③ |②---|
口口口④ |③---|
口①①口 |④---|
51
口④④口 |①---|
②口口口 |②---|
③口口口 |③---|
口①①口 |④---|
52
口口口② |①---|
口口口③ |②---|
口口口④ |③---|
口①①口 |④---|
53
口口口口 |①---|
③①①③ |②---|
④②②④ |③---|
口口口口 |④---|
54
口口口② |①---|
口口口③ |②---|
口口口④ |③---|
口①①口 |④---|
55
口口口口 |①---|
②④④口 |②---|
③口口口 |③---|
口①①口 |④---|
56
②口口① |①---|
④口口③ |②---|
口口口口 |③---|
口口口口 |④---|
57
③③③③ |①---|
口①①口 |②---|
口②②口 |③---|
口口口口 |----|
58
口口口口 |①---|
口口口口 |----|
①①①① |----|
口①口① |----|

accuracy: 100%
最終更新:2022年05月13日 04:59