アットウィキロゴ
Wowie Zowie!
Hommarju

ADVANCED

Level: 9.8
BPM: 128
Notes: 715

1
口口口口 |----|
口口口口 |----|
口口口口 |----|
口口口口 |----|
2
口口口口 |①---|
②④②④ |②---|
口口口口 |③---|
①口口③ |④---|
3
口口口口 |①---|
②④②④ |②---|
口口口口 |③---|
①口口③ |④---|
4
口口口口 |①---|
②④②④ |②---|
口口口口 |③---|
①口口③ |④---|
5
口口口口 |①---|
②④②④ |②---|
口口口口 |③---|
①口口③ |④---|
6
②④②④ |①---|
口口口口 |②---|
口口口口 |③---|
①口口③ |④---|
7
②④②④ |①---|
口口口口 |②---|
口口口口 |③---|
①口口③ |④---|
8
②④②④ |①---|
口口口口 |②---|
口口口口 |③---|
①口口③ |④---|
9
②④②④ |①---|
口口口口 |②---|
口口口口 |③---|
①口口③ |④---|
10
⑧⑩⑨⑪ |①-------②-|
④⑤⑥⑦ |③--------④----⑤----⑥----⑦-----|
⑫③③⑬ |⑧--⑨-⑩--⑪-|
②①①② |⑫-⑬-|
11
⑧⑩⑨⑪ |①-------②-|
④⑤⑥⑦ |③--------④----⑤----⑥----⑦-----|
⑫③③⑫ |⑧--⑨-⑩--⑪-|
②①①② |⑫---|
12
⑧⑩⑨⑪ |①-------②-|
④⑤⑥⑦ |③--------④----⑤----⑥----⑦-----|
⑫③③⑬ |⑧--⑨-⑩--⑪-|
②①①② |⑫-⑬-|
13
⑧⑩⑨⑪ |①-------②-|
④⑤⑥⑦ |③--------④----⑤----⑥----⑦-----|
⑫③③⑫ |⑧--⑨-⑩--⑪-|
②①①② |⑫---|
14
⑧⑩⑨⑪ |①-------②-|
④⑤⑥⑦ |③--------④----⑤----⑥----⑦-----|
⑫③③⑬ |⑧--⑨-⑩--⑪-|
②①①② |⑫-⑬-|
15
⑧⑩⑨⑪ |①-------②-|
④⑤⑥⑦ |③--------④----⑤----⑥----⑦-----|
⑫③③⑫ |⑧--⑨-⑩--⑪-|
②①①② |⑫---|
16
口口口口 |①--②-③--④-|
②口①口 |⑤--⑥-⑦--⑧-|
⑥口⑤口
⑧④⑦③

⑩口⑨口
⑫口⑪口
口⑭口⑬ |⑨--⑩-⑪--⑫-|
口⑯口⑮ |⑬--⑭-⑮--⑯-|
17
②①②① |①---|
③②③② |②---|
①③①口 |③---|
③口③口 |----|
18
①口口① |①---|
口口口口 |②③④⑤⑥⑦|
⑤⑥⑦口
②③④口

⑪⑫⑬⑭
⑧⑨⑩口
口口口⑯ |⑧⑨⑩⑪⑫⑬|
口口口⑮ |⑭--⑮-⑯----|
19
⑩⑪⑫口 |①②③④⑤⑥|
⑦⑧⑨口 |⑦⑧⑨⑩⑪⑫|
④⑤⑥口
①②③口

口口口⑭
口口口⑬
⑮⑯口⑭ |---⑬----⑭-|
口⑮⑯⑬ |---⑮-⑯----|
20
⑤口②口 |①---|
⑥①③口 |②③④⑤⑥⑦|
⑦口④口
①口口口

口⑪口⑮
口⑫⑯⑧
口⑬口⑨ |⑧⑨⑩⑪⑫⑬|
口口⑭⑩ |⑭--⑮-⑯----|
21
口⑦⑦口 |①②③④⑤⑥|
①⑧⑧④ |⑦---|
②⑨⑨⑤ |⑧---|
③口口⑥ |⑨---|
22
①口口① |①---|
口口口口 |②③④⑤⑥⑦|
⑤⑥⑦口
②③④口

⑪⑫⑬⑭
⑧⑨⑩口
口口口⑯ |⑧⑨⑩⑪⑫⑬|
口口口⑮ |⑭--⑮-⑯----|
23
⑩⑪⑫口 |①②③④⑤⑥|
⑦⑧⑨口 |⑦⑧⑨⑩⑪⑫|
④⑤⑥口
①②③口

口口口⑭
口口口⑬
⑮⑯口⑭ |---⑬----⑭-|
口⑮⑯⑬ |---⑮-⑯----|
24
①②⑥⑤ |①-②-|
⑤③①口 |③-④-|
口口④⑦ |⑤-⑥-|
⑦口⑧③ |⑦-⑧-|
25
⑦⑧⑨口 |①-②-③-|
④⑤⑥口 |④-⑤-⑥-|
①②③口 |⑦-⑧-⑨-|
口口口口 |----|
26
⑧⑩⑨⑪ |①-------②-|
④⑤⑥⑦ |③--------④----⑤----⑥----⑦-----|
⑫③③⑬ |⑧--⑨-⑩--⑪-|
②①①② |⑫-⑬-|
27
⑧⑩⑨⑪ |①-------②-|
④⑤⑥⑦ |③--------④----⑤----⑥----⑦-----|
⑫③③⑫ |⑧--⑨-⑩--⑪-|
②①①② |⑫---|
28
⑧⑩⑨⑪ |①-------②-|
④⑤⑥⑦ |③--------④----⑤----⑥----⑦-----|
⑫③③⑬ |⑧--⑨-⑩--⑪-|
②①①② |⑫-⑬-|
29
⑧⑩⑨⑪ |①-------②-|
④⑤⑥⑦ |③--------④----⑤----⑥----⑦-----|
⑫③③⑫ |⑧--⑨-⑩--⑪-|
②①①② |⑫---|
30
⑧⑩⑨⑪ |①-------②-|
④⑤⑥⑦ |③--------④----⑤----⑥----⑦-----|
⑫③③⑬ |⑧--⑨-⑩--⑪-|
②①①② |⑫-⑬-|
31
⑧⑩⑨⑪ |①-------②-|
④⑤⑥⑦ |③--------④----⑤----⑥----⑦-----|
⑫③③⑫ |⑧--⑨-⑩--⑪-|
②①①② |⑫---|
32
口口口口 |①--②-③--④-|
②口①口 |⑤--⑥-⑦--⑧-|
⑥口⑤口
⑧④⑦③

⑩口⑨口
⑫口⑪口
口⑭口⑬ |⑨--⑩-⑪--⑫-|
口⑯口⑮ |⑬--⑭-⑮--⑯-|
33
②①②① |①---|
口①③① |②---|
②③②③ |③---|
口口③口 |----|
34
⑬⑬②① |①②③④|
⑬⑬④③ |⑤⑥⑦⑧|
⑥⑤⑩⑨ |⑨⑩⑪⑫|
⑧⑦⑫⑪ |⑬---|
35
⑬⑬②① |①②③④|
⑬⑬④③ |⑤⑥⑦⑧|
⑥⑤⑫⑪ |⑨⑩⑪⑫|
⑧⑦⑩⑨ |⑬---|
36
口口②① |①②③④|
口口④③ |⑤⑥⑦⑧|
⑥⑤口口
⑧⑦口口

⑬⑬口⑭
⑬⑬口口
口口⑩⑨ |⑨⑩⑪⑫|
口口⑫⑪ |⑬--⑭|
37
口口口口 |①②③④|
口口②① |⑤--⑥|
口口④③
⑥口口⑤

口⑦⑦口
口⑧⑧口
口口口口 |⑦-⑧-|
口⑨⑨口 |⑨---|
38
①②⑬⑬ |①②③④|
③④⑬⑬ |⑤⑥⑦⑧|
⑨⑩⑤⑥ |⑨⑩⑪⑫|
⑪⑫⑦⑧ |⑬---|
39
①②⑬⑬ |①②③④|
③④⑬⑬ |⑤⑥⑦⑧|
⑪⑫⑤⑥ |⑨⑩⑪⑫|
⑨⑩⑦⑧ |⑬---|
40
①②口口 |①②③④|
③④口口 |⑤⑥⑦⑧|
口口⑤⑥
口口⑦⑧

⑭口⑬⑬
口口⑬⑬
⑨⑩口口 |⑨⑩⑪⑫|
⑪⑫口口 |⑬--⑭|
41
口口口口 |①②③④|
①②口⑥ |⑤--⑥|
③④口口
⑤口口口

口⑦⑦口
口⑧⑧口
口口口口 |⑦-⑧-|
口⑨⑨口 |⑨---|
42
口口③口 |①-------②-|
口④⑤② |-----③----|
口口口口 |---④-⑤|
口口口① |----|
43
口③口口 |①-------②-|
②⑤④口 |-----③----|
口口口口 |---④-⑤|
①口口口 |----|
44
口口③口 |①-------②-|
口④⑤② |-----③----|
口口口口 |---④-⑤|
口口口① |----|
45
口③口口 |①-------②-|
②⑤④口 |-----③----|
口口口口 |---④-⑤|
①口口口 |----|
46
口口⑧⑦ |①-②-|
口口⑥⑤ |③-④-|
口口④③ |⑤-⑥-|
口口②① |⑦-⑧-|
47
⑦⑧口口 |①-②-|
⑤⑥口口 |③-④-|
③④口口 |⑤-⑥-|
①②口口 |⑦-⑧-|
48
⑩口口① |①-②-③-|
④⑪②⑦ |④-⑤-⑥-|
⑫⑤⑧③ |⑦-⑧-⑨-|
⑥口口⑨ |⑩-⑪-⑫-|
49
②口口① |①---|
口②①口 |----|
口①②口 |②---|
①口口② |----|
50
口口口口 |①---|
①⑥⑥① |②③④⑤⑥-|
口口口口
②③④⑤

⑩口口⑦
⑪口口⑧
口口口⑨ |--⑦-⑧-|
口口口口 |⑨-⑩-⑪-|
51
口口口口 |①---|
口⑥⑥口 |②③④⑤⑥-|
口①①口
②③④⑤

⑨口口⑦
口口口⑧
⑪口⑩口 |--⑦-⑧-|
口口口口 |⑨-⑩-⑪-|
52
⑩⑥⑥⑦ |①---|
⑪①①⑧ |②③④⑤⑥-|
口口口⑨ |--⑦-⑧-|
②③④⑤ |⑨-⑩-⑪-|
53
口①①口 |①---|
口④④口 |②---|
口②②口 |③---|
口③③口 |④---|
54
①口口① |①---|
①⑥⑥① |②③④⑤⑥-|
口口口口
②③④⑤

⑩口口⑦
⑪口口⑧
口口口⑨ |--⑦-⑧-|
口口口口 |⑨-⑩-⑪-|
55
⑨口⑩⑦ |①---|
口⑥⑥⑧ |②③④⑤⑥-|
⑪①①口 |--⑦-⑧-|
②③④⑤ |⑨-⑩-⑪-|
56
口⑪⑪口 |①②③④⑤⑥|
①②③口 |⑦⑧⑨⑩⑪-|
口④⑤⑥
⑦⑧⑨⑩

⑮口口⑫
⑯口⑬口
口⑭口口 |--⑫-⑬-|
口口口口 |⑭-⑮-⑯-|
57
口口口口 |①---|
口①口① |②---|
②口②口
①②①②

③③③③
④口口口
口口口口 |③---|
⑥口⑤口 |④-⑤-⑥-|
58
口口口口 |①---|
口①①① |----|
①①①① |----|
口①口① |----|

accuracy: 100%
最終更新:2022年05月14日 03:05