アットウィキロゴ
Wowie Zowie!
Hommarju

EXTREME

Level: 10.7
BPM: 128
Notes: 854

1
口口口口 |----|
口口口口 |----|
口口口口 |----|
口口口口 |----|
2
④口口② |①---|
口④②口 |②---|
口口口口 |③---|
①口③口 |④---|
3
④口口② |①---|
口④②口 |②---|
口口口口 |③---|
①口③口 |④---|
4
口④②口 |①---|
④口口② |②---|
口口口口 |③---|
①口③口 |④---|
5
口④②口 |①---|
④口口② |②---|
口口口口 |③---|
①口③口 |④---|
6
⑦⑥口③ |①-------②-|
口⑦③口 |③----④----|
②口口④ |⑤--⑥------|
①口⑤口 |⑦---|
7
⑩⑦口③ |①-------②-|
②⑩③⑥ |③----④----|
口口口⑧ |⑤----⑥⑦---⑧----⑨----|
①④⑤⑨ |⑩---|
8
④⑦③口 |①-------②-|
⑦口口③ |③----④----|
②口⑥口 |⑤--⑥------|
①口⑤口 |⑦---|
9
④⑩③口 |①-------②-|
⑩⑥口③ |③----④----|
②⑧口口 |⑤----⑥⑦---⑧----⑨----|
①⑨⑤⑦ |⑩---|
10
④⑤⑫① |①-----------------------②-----|
⑩⑥②口 |③--------④----⑤----⑥----⑦-----|
⑪⑦⑧① |⑧--------⑨-----⑩--------⑪-----|
③⑬②⑨ |⑫--------------⑬--------------|
11
④⑤口① |-①-----------------------②----|
口⑥②口 |-③--------④----⑤----⑥----⑦----|
口⑦口①
③口②口

口口⑫口
⑫口口⑩
口口⑧⑪ |-⑧--------⑨-----⑩--------⑪----|
口⑨口口 |-⑫----------------------------|
12
①⑫⑤④ |①-----------------------②-----|
口②⑥⑩ |③--------④----⑤----⑥----⑦-----|
①⑧⑦⑪ |⑧--------⑨-----⑩--------⑪-----|
⑨②⑬③ |⑫--------------⑬--------------|
13
①口⑤④ |-①-----------------------②----|
口②⑥口 |-③--------④----⑤----⑥----⑦----|
①口⑦口
口②口③

口⑫口口
⑩口口⑫
⑪⑧口口 |-⑧--------⑨-----⑩--------⑪----|
口口⑨口 |-⑫----------------------------|
14
④⑤⑫① |①-----------------------②-----|
⑩⑥②口 |③--------④----⑤----⑥----⑦-----|
⑪⑦⑧① |⑧--------⑨-----⑩--------⑪-----|
③⑬②⑨ |⑫--------------⑬--------------|
15
④⑤口① |-①-----------------------②----|
口⑥②口 |-③--------④----⑤----⑥----⑦----|
口⑦口①
③口②口

口口⑫口
⑫口口⑩
口口⑧⑪ |-⑧--------⑨-----⑩--------⑪----|
口⑨口口 |-⑫----------------------------|
16
口口⑥② |①--②-③--④-|
⑦③口口 |⑤--⑥-⑦--⑧-|
①⑤⑧口
口口口④

⑩⑭口口
口口⑪⑮
⑫⑯口口 |⑨--⑩-⑪--⑫-|
⑨口⑬口 |⑬--⑭-⑮--⑯-|
17
⑪⑫②① |①②③④⑤⑥|
③④口口 |⑦⑧⑨⑩⑪⑫|
口口⑥⑤
⑦⑧⑩⑨

口口⑱⑰
口⑳⑭⑬
⑮⑯21⑲ |⑬⑭⑮⑯⑰⑱|
口口口口 |⑲-⑳21--|
18
口口⑤② |①---|
口口⑥③ |②③④⑤⑥⑦|
口口⑦④
①口①口

⑪⑧口口
⑫⑨口口
⑬⑩口口 |⑧⑨⑩⑪⑫⑬|
⑭口⑮⑯ |⑭--⑮-⑯----|
19
口口②① |①②③④⑤⑥|
⑫⑤④③ |⑦⑧⑨⑩⑪⑫|
⑧⑦⑥口
⑩⑨⑪口

⑭⑭口⑯
口口⑮⑮
⑰口⑰⑯ |⑬--⑭----⑮-|
口口口⑬ |---⑯-⑰----|
20
口④⑤口 |①---|
②③⑥⑦ |②③④⑤⑥⑦|
口口口口
口①①口

口口口⑭
⑯口口口
⑬⑫⑨⑧ |⑧⑨⑩⑪⑫⑬|
口⑪⑩⑮ |⑭--⑮-⑯----|
21
口口①⑨ |①②③④⑤⑥|
口⑦②③ |⑦--⑧----⑨-|
口口⑤④
⑦⑧⑥口

⑩⑪⑮口
⑬⑮口口
⑬⑩口⑭ |⑩--⑪----⑫-|
口口⑭⑫ |⑬--⑭-⑮----|
22
③②口口 |①-----|
④口①① |②③④⑤⑥⑦|
⑤⑥①口
口⑦口口

⑯口⑬⑭
口口⑫⑪
口口口⑩ |⑧⑨⑩⑪⑫⑬|
⑮口⑧⑨ |⑭--⑮-⑯----|
23
口⑩⑪⑫ |①②③④⑤⑥|
⑦⑧⑨口 |⑦⑧⑨⑩⑪⑫|
①②③口
口④⑤⑥

⑬口口口
⑯口口⑭
⑮⑯⑰⑭ |⑬--⑭----⑮-|
⑮口口⑰ |---⑯-⑰----|
24
④②④② |①----②----|
口⑤①口 |③--④-⑤----|
口口口口
口③口口

口⑩口⑩
⑦口⑨口
口⑧⑪⑥ |⑥--⑦-⑧--⑨-|
⑦⑫口⑫ |⑩--⑪-⑫----|
25
①⑨②⑩ |①②③④⑤⑥|
⑤③⑫④ |⑦⑧⑨⑩⑪⑫|
⑦⑪口⑥
口口⑧口

⑮口⑯口
⑲⑰口⑱
口口⑳口 |⑬⑭⑮⑯⑰⑱|
⑬21口⑭ |⑲-⑳21--|
26
④⑤⑫① |①-----------------------②-----|
⑩⑥②口 |③--------④----⑤----⑥----⑦-----|
⑪⑦⑧① |⑧--------⑨-----⑩--------⑪-----|
③⑬②⑨ |⑫--------------⑬--------------|
27
④⑤口① |-①-----------------------②----|
口⑥②口 |-③--------④----⑤----⑥----⑦----|
口⑦口①
③口②口

口口⑫口
⑫口口⑩
口口⑧⑪ |-⑧--------⑨-----⑩--------⑪----|
口⑨口口 |-⑫----------------------------|
28
①⑫⑤④ |①-----------------------②-----|
口②⑥⑩ |③--------④----⑤----⑥----⑦-----|
①⑧⑦⑪ |⑧--------⑨-----⑩--------⑪-----|
⑨②⑬③ |⑫--------------⑬--------------|
29
①口⑤④ |-①-----------------------②----|
口②⑥口 |-③--------④----⑤----⑥----⑦----|
①口⑦口
口②口③

口⑫口口
⑩口口⑫
⑪⑧口口 |-⑧--------⑨-----⑩--------⑪----|
口口⑨口 |-⑫----------------------------|
30
④⑤⑫① |①-----------------------②-----|
⑩⑥②口 |③--------④----⑤----⑥----⑦-----|
⑪⑦⑧① |⑧--------⑨-----⑩--------⑪-----|
③⑬②⑨ |⑫--------------⑬--------------|
31
④⑤口① |-①-----------------------②----|
口⑥②口 |-③--------④----⑤----⑥----⑦----|
口⑦口①
③口②口

口口⑫口
⑫口口⑩
口口⑧⑪ |-⑧--------⑨-----⑩--------⑪----|
口⑨口口 |-⑫----------------------------|
32
口口⑥② |①--②-③--④-|
⑦③口口 |⑤--⑥-⑦--⑧-|
①⑤⑧口
口口口④

⑩⑭口口
口口⑪⑮
⑫⑯口口 |⑨--⑩-⑪--⑫-|
⑨口⑬口 |⑬--⑭-⑮--⑯-|
33
⑪⑫②① |①②③④⑤⑥|
③④口口 |⑦⑧⑨⑩⑪⑫|
口口⑥⑤
⑦⑧⑩⑨

口口⑱⑰
⑲⑳⑭⑬
⑮⑯2221 |⑬⑭⑮⑯⑰⑱|
2324口口 |⑲⑳21222324|
34
⑥⑦口口 |①②③④|
口口③② |⑤⑥⑦⑧|
⑤⑧口口
口口④①

口口口口
⑨⑩⑬⑬
口口⑪⑫ |⑨⑩⑪⑫|
口口⑬⑬ |⑬---|
35
口口⑦⑥ |①②③④|
②③口口 |⑤⑥⑦⑧|
口口⑧⑤
①④口口

口口口口
⑬⑬⑩⑨
⑫⑪口口 |⑨⑩⑪⑫|
⑬⑬口口 |⑬---|
36
⑥⑦口口 |①②③④|
口口③② |⑤⑥⑦⑧|
⑤⑧口口
口口④①

口口口⑭
⑨⑩⑬⑬
口口⑪⑫ |⑨⑩⑪⑫|
口口⑬⑬ |⑬--⑭|
37
⑤⑤⑨⑨ |①②③④|
③④口⑦ |⑤--⑥|
②①⑧⑥ |⑦-⑧-|
⑤⑤⑨⑨ |⑨---|
38
口口⑦⑥ |①②③④|
②③口口 |⑤⑥⑦⑧|
口口⑧⑤
①④口口

口口口口
⑬⑬⑩⑨
⑫⑪口口 |⑨⑩⑪⑫|
⑬⑬口口 |⑬---|
39
⑥⑦口口 |①②③④|
口口③② |⑤⑥⑦⑧|
⑤⑧口口
口口④①

口口口口
⑨⑩⑬⑬
口口⑪⑫ |⑨⑩⑪⑫|
口口⑬⑬ |⑬---|
40
口口⑦⑥ |①②③④|
②③口口 |⑤⑥⑦⑧|
口口⑧⑤
①④口口

⑭口口口
⑬⑬⑩⑨
⑫⑪口口 |⑨⑩⑪⑫|
⑬⑬口口 |⑬--⑭|
41
⑨⑨⑤⑤ |①②③④|
⑦口④③ |⑤--⑥|
⑥⑧①② |⑦-⑧-|
⑨⑨⑤⑤ |⑨---|
42
④⑦口② |①-------②-|
口④③⑥ |③--④--|
⑦口⑥② |⑤--⑥-⑦|
⑤口口① |----|
43
⑦④口② |①-------②-|
④⑥③口 |③--④--|
⑦⑥口② |⑤--⑥-⑦|
口口⑤① |----|
44
④⑦口② |①-------②-|
口④③⑥ |③--④--|
⑦口⑥② |⑤--⑥-⑦|
⑤口口① |----|
45
⑦④口② |①-------②-|
④⑥③口 |③--④--|
⑦⑥口② |⑤--⑥-⑦|
口口⑤① |----|
46
⑤口口③ |①----②--③-|
口口④口 |④--⑤-⑥----|
口⑥口③
口②口①

口⑨⑧口
⑨⑫⑬⑧
口⑭⑦口 |⑦--⑧-⑨--⑩-|
⑩口⑪口 |⑪--⑫-⑬--⑭-|
47
⑤口口③ |①----②--③-|
口口口口 |④--⑤-⑥----|
⑥口口④
口②口①

口⑨⑨口
口⑩⑪⑦
口⑧⑧口 |⑦--⑧-⑨--⑩-|
口⑫⑬口 |⑪--⑫-⑬----|
48
①口口④ |①-②-③-|
⑤口口② |④-⑤-⑥-|
①⑥③④
口口口口

口口口口
⑫⑩⑦⑨
口口口口 |⑦-⑧-⑨-|
⑩⑪⑧⑦ |⑩-⑪-⑫-|
49
①①①① |①---|
口口口口 |----|
口①①口
口口口口

口③④口
②②②②
②⑤口② |②---|
②②②② |③-④-⑤-|
50
②口⑥⑥ |①---|
③⑦口口 |②③④⑤⑥⑦|
④口①口
⑤口口口

口⑭口口
口口⑬⑫
口⑧⑪⑩ |⑧⑨⑩-⑪-|
口⑨⑪⑩ |⑫-⑬-⑭-|
51
②口⑥⑥ |①---|
⑦③口口 |②③④⑤⑥⑦|
①口④口
①口口⑤

口⑫口口
口口⑬⑩
⑪⑧⑭⑩ |⑧⑨⑩-⑪-|
⑪口⑨口 |⑫-⑬-⑭-|
52
①⑥⑦② |①---|
⑥①口③ |②③④⑤⑥⑦|
口口口④
口口口⑤

⑩口口⑬
口⑩⑧口
口口⑨⑭ |⑧⑨⑩-⑪-|
⑪口⑫口 |⑫-⑬-⑭-|
53
口②②口 |①---|
①口口③ |②---|
①口口③ |③---|
④④口口 |④---|
54
②口⑥⑥ |①---|
③⑦口口 |②③④⑤⑥⑦|
④口口口
⑤口①①

口⑭口口
口口⑬⑫
口⑧⑪⑩ |⑧⑨⑩-⑪-|
口⑨⑪⑩ |⑫-⑬-⑭-|
55
②口⑥⑥ |①---|
⑦③口口 |②③④⑤⑥⑦|
①口④口
①口口⑤

口⑫口口
口口⑬⑩
⑪⑧⑭⑩ |⑧⑨⑩-⑪-|
⑪口⑨口 |⑫-⑬-⑭-|
56
①口②口 |①②③④⑤⑥|
⑪⑤⑫⑥ |⑦⑧⑨⑩⑪⑫|
口⑨口⑩
⑦③⑧④

⑮⑬⑯⑭
口⑲口⑳
口23口24 |⑬⑭⑮⑯⑰⑱|
21⑰22⑱ |⑲⑳21222324|
57
口口口口 |①---|
①口②口 |②---|
①口②口
口口口口

③③③③
④口口口
口口口口 |③---|
⑥口⑤口 |④-⑤-⑥-|
58
口口口口 |①---|
口①①① |----|
①①①① |----|
口①口① |----|

accuracy: 100%
最終更新:2022年05月14日 05:28