アットウィキロゴ
月に叢雲華に風 [ 2 ]
幽閉サテライト feat. senya

EXTREME

Level: 8
BPM: 160
Notes(hold): 638(67)

1
□①□□ |----|
□□②□ |----|
□□□□ |①---|
□□□□ |②---|
2
□□□□ |①---|
□③□□ |----|
□①②□ |②---|
□□□□ |③---|
3
□□□① |①--②|
②□□□ |--③-|
□□□□ |----|
□□③□ |----|
4
④□□□ |①---|
□□③□ |----|
□□①□ |②--③|
□②□□ |--④-|
5
□□①□ |①--②|
□□□□ |--③-|
□②□□ |----|
□④□③ |④---|
6
②□□□ |①---|
□□□□ |--②-|
□□①□
□□□□

□□③□
□□④□
□□⑤□ |--③-|
□□□□ |④-⑤-|
7
□□□□ |①-②-|
□③□□ |③---|
□②□□
□①□□

□□□④
□□⑤□
□⑥□□ |--④-|
□□□□ |⑤-⑥-|
8
□□□□ |①---|
①――< |----|
□□□□ |----|
□□□□ |----|
9
□□□□ |----|
1□□□ |----|
□□□□ |----|
□□□□ |①---|
10
④□□□ |①-②-|
|□③□ |③-④-|
∧②□□
□□①□

5□□V
□□□|
□□□| |----|
□□⑤⑥ |⑤-⑥-|
11
□□□□ |----|
□□②□ |----|
③③□□ |①---|
①□□1 |②-③-|
12
②□□① |--①-|
④④④□ |②-③-|
□□③□ |④--⑤|
⑤⑤⑤□

□⑥⑥⑥
□|||
□∧∧∧
□□□□ |--⑥-|
13
□111 |----|
□□□④ |①---|
□□③□ |②-③-|
□②□□ |④---|
14
□□□□ |①---|
□□□□
①―<□
①―<□

――③
――③ |--②-|
2□□② |③---|
2□□□ |----|
15
□②②1 |①---|
①□③1 |--②-|
□④□□ |--③-|
□□⑤□ |④-⑤-|
16
①□②② |①---|
①□□□ |--②-|
□□□①
②②□①

④―<□
□□④□
③④□③ |----|
□>―④ |③-④-|
17
1□□□ |----|
□□□□ |----|
□□□□ |①---|
□□□1 |----|
18
□□□□ |①---|
V□□□ |----|
|□□□
①□□□

□□□□
□V□□
□|□□ |②---|
2②□□ |----|
19
□□V□ |①---|
□□|□ |----|
□□|□
□1①□

□□□□
□③④□
□□□□ |--②-|
□□2□ |③-④-|
20
□①□□ |①---|
□□□□
□□□□
□□□□

②>―③
□□□□ |②-③-|
□□□□
□□□□

□□□4
□□□④
□□□□ |----|
□□□□ |④---|
21
□□□□ |①---|
①―<□ |----|
□□□□
□□□□

□□□□
2④□□
□□③□ |②---|
□□□□ |③-④-|
22
□□□① |①---|
□□□|
□□□∧
□□□□

□□②2
□□|□ |--②-|
□□∧□ |----|
□□□□

□③3□
□□□□
□□□□
□□□□ |③---|
23
□□□□ |①---|
□□□□
□□□□
①―<□

□□□□
□□□□ |②---|
□>―②
2□□□

□□□□
③―<□
□□□3 |③---|
□□□□

□>―④
4□□□
□□□□
□□□□ |④---|
24
□□□1 |①---|
□□□□ |----|
□①―< |----|
□□□□ |----|
25
①□①□ |①---|
□②□② |②---|
③1③□ |③---|
□④□④ |④---|
26
②□□③ |①-②-|
□⑥①① |③-④-|
④□⑦□ |⑤-⑥-|
□⑧⑤⑤ |⑦-⑧-|
27
□②□③ |①-②-|
⑤⑤①① |③-④-|
□④□□ |--⑤-|
□⑥□□ |--⑥-|
28
④□□① |①-②-|
□⑤②□ |③-④-|
□③⑥□ |⑤-⑥-|
□>―⑦ |⑦---|
29
□□□□ |①---|
□□□□
①―<□
□□□1

□□□□
□>―② |②---|
2□□□
□□□□

③□□□
③□□3
□□⑤□ |③---|
□□④□ |④-⑤-|
30
□②⑥⑥ |①-②-|
□③①□ |③-④-|
□④□□ |⑤---|
□⑤□□ |--⑥-|
31
□□⑥□ |--①-|
①①⑤□ |--②-|
□④②② |③-④-|
□③□□ |⑤-⑥-|
32
□□□③ |①-②-|
①――< |--③-|
□□□□
□□②□

□□□□
□□□⑤
□□④□ |--④-|
□□□□ |--⑤-|
33
②□□□ |①-②-|
1□□□ |--③-|
――①
□③□□

□□□□
□□⑤□
□④□5 |--④-|
□□□□ |⑤---|
34
①①①□ |①---|
①④③□ |--②-|
②④□□ |----|
②②②□ |③-④-|
35
□□□□ |----|
□④□□ |--①-|
③□□□ |--②-|
□②□① |③-④-|
36
□①①① |①---|
□③④① |--②-|
□□④② |----|
□②②② |③-④-|
37
□□□□ |----|
□□④□ |--①-|
□□□③ |--②-|
①□②□ |③-④-|
38
①①①① |①---|
□④③□ |--②-|
□④③□ |----|
②②②② |③-④-|
39
□①□□ |----|
①□④□ |--①-|
□□□③ |--②-|
□□②□ |③-④-|
40
①④③⑥ |①--②|
□②⑤□ |--③-|
①④③⑥ |④--⑤|
□②⑤□ |--⑥-|
41
□□□□ |①---|
①□□① |--②-|
|②②③ |----|
∧□□③ |③---|
42
③□□② |①---|
1①①① |----|
□□□□ |②---|
②□□③ |③---|
43
□②①< |①---|
□□>① |②---|
①□>①
□①①□

□□3□
□③□3
□□□3 |③---|
④④□□ |④---|
44
①□□② |①--②|
□□□□
□②□□
□□①□

□③―<
□□□□ |--③-|
□□□□
□>―③

□4□□
□□□□
□□④□ |----|
□□□4 |④---|
45
④□□□ |①-②-|
③>―① |③-④-|
②>―①
□①□□

□⑤□□
□□□5
□⑤□5 |⑤--⑥|
⑦⑦⑥⑥ |--⑦-|
46
②□□② |①--②|
□①①□ |--③-|
③><③
□□□□

□□□□
□44□
④□□④ |----|
□□□□ |④---|
47
□VV□ |①---|
□||□
□||□
□①①□

⑤□□④
②③□② |--②-|
□□□□ |--③-|
□22□ |④-⑤-|
48
□□□□ |①-②-|
□□①□ |③---|
□②□□
□□③③

□□□□
□□⑤□
□⑥□□ |--④-|
④□□□ |⑤-⑥-|
49
――① |①-②-|
②④□□ |③-④-|
□□□□
□③□□

⑧□□7
⑧□⑥⑦
⑧□□□ |⑤-⑥-|
□□⑤□ |⑦-⑧-|
50
□□⑤⑤ |--①-|
□□□□ |②-③-|
□④③□ |④-⑤-|
②□□① |----|
51
□□□④ |①-②-|
①―<③ |③-④-|
①―<②
□□①□

□□⑤□
5□□□
5□⑤□ |⑤---|
⑥⑥□□ |⑥---|
52
①□□② |①--②|
□□□□
□②□□
□□①□

□③―<
□□□□ |--③-|
□□□□
□>―③

□4□□
□□□□
□□④□ |----|
□□□4 |④---|
53
④□□□ |①-②-|
③>―① |③-④-|
②>―①
□①□□

□⑤□□
□□□5
□⑤□5 |⑤--⑥|
⑦⑦⑥⑥ |--⑦-|
54
②□□② |①--②|
□①①□ |--③-|
③><③
□□□□

□□□□
□44□
④□□④ |----|
□□□□ |④---|
55
□VV□ |①---|
□||□
□||□
□①①□

⑤□□④
②③□② |--②-|
□□□□ |--③-|
□22□ |④-⑤-|
56
⑥□□⑤ |①-②-|
□□①□ |③---|
□②□□ |--④-|
④□□③ |⑤-⑥-|
57
⑦□□□ |①-②-|
④⑥□⑤ |③-④-|
②□③□ |⑤-⑥-|
⑧>―① |⑦-⑧-|
58
□□□□ |①②③④|
⑧⑦⑥⑤ |⑤⑥⑦⑧|
④③②①
□□□1

⑨⑩⑪⑫
□□□□
□□□□ |⑨⑩⑪⑫|
⑬⑭⑮⑯ |⑬⑭⑮⑯|
59
VV④□ |①-②-|
||□③ |③-④-|
①①②□
□□□□

⑥⑤□□
⑧□⑤□
55□□ |⑤-⑥-|
□⑦⑦□ |⑦-⑧-|
60
□□□① |①-②③|
□②④① |--④-|
□□④③
□□□③

⑧□□□
□□□⑦
□⑥□□ |⑤-⑥-|
□□⑤□ |⑦-⑧-|
61
□②①① |①-②-|
③□|| |③-④-|
□④∧∧
□□□□

□□55
□⑦□⑧
□□⑤⑧ |⑤-⑥⑦|
□⑤⑦⑥ |--⑧-|
62
③④□⑧ |①-②③|
③⑤②□ |--④-|
①④⑥□ |⑤-⑥-|
①⑦□□ |⑦-⑧-|
63
□□□□ |①-②-|
①□③□ |③-|
|□□②
∧□①□

□⑤④□
4⑥□□ |④-|
□⑦④□ |--⑤-|
□□□□ |⑥-⑦-|
64
□□□□ |①-②-|
□□③□ |③---|
□□②□
□□①□

□□⑤□
□□□□
□□□□ |--④-|
□④⑥□ |⑤-⑥-|
65
①①□□ |①-②-|
||□□ |③-④-|
∧∧③④
□□□②

77⑥⑦
□□□⑤
□□□□ |⑤-⑥-|
□⑧⑧⑧ |⑦-⑧-|
66
④⑤⑥⑦ |--①-|
②①③□ |②-③-|
②①③□ |④⑤⑥⑦|
⑧⑨⑩⑪ |⑧⑨⑩⑪|
67
VV④□ |①-②-|
||□③ |③-④-|
①①②□
□□□□

⑥⑤□□
⑧□⑤□
55□□ |⑤-⑥-|
□⑦⑦□ |⑦-⑧-|
68
□□□① |①-②③|
□②④① |--④-|
□□④③
□□□③

⑧□□□
□□□⑦
□⑥□□ |⑤-⑥-|
□□⑤□ |⑦-⑧-|
69
□②①① |①-②-|
③□|| |③-④-|
□④∧∧
□□□□

□□55
□⑦□⑧
□□⑤⑧ |⑤-⑥⑦|
□⑤⑦⑥ |--⑧-|
70
③④□⑧ |①-②③|
③⑤②□ |--④-|
①④⑥□ |⑤-⑥-|
①⑦□□ |⑦-⑧-|
71
□□□□ |①-②-|
①□③□ |③-|
|□□②
∧□①□

□⑤④□
4⑥□□ |④-|
□⑦④□ |--⑤-|
□□□□ |⑥-⑦-|
72
⑥□□⑤ |①-②-|
□□③③ |③---|
□□②□ |--④-|
④□①□ |⑤-⑥-|
73
⑦□□□ |①-②-|
④⑥□⑤ |③-④-|
②□③□ |⑤-⑥-|
⑧>―① |⑦-⑧-|
74
□□□□ |①②③④|
⑧⑦⑥⑤ |⑤⑥⑦⑧|
④③②①
□□□1

⑨⑩⑪⑫
□□□□
□□□□ |⑨⑩⑪⑫|
⑬⑭⑮⑯ |⑬⑭⑮⑯|
75
□□□□ |①---|
□③□□ |----|
□①②□ |②---|
□□□□ |③---|
76
□□□① |①--②|
②□□□ |--③-|
□□□□ |----|
□□③□ |----|
77
④□□□ |①---|
□□③□ |----|
□□①□ |②--③|
□②□□ |--④-|
78
□□①□ |①--②|
□□□□ |--③-|
□②□□ |----|
□④□③ |④---|
79
②□□□ |①---|
□□□□ |--②-|
□□①□
□□□□

□□③□
□□④□
□□⑤□ |--③-|
□□□□ |④-⑤-|
80
□□□□ |①-②-|
□③□□ |③---|
□②□□
□①□□

□□□④
□□⑤□
□⑥□□ |--④-|
□□□□ |⑤-⑥-|
81
□□□□ |①---|
①――< |----|
□□□□ |----|
□□□□ |----|
82
□□□□ |----|
□□□□ |----|
□□□□ |----|
□□□□ |----|
83
□□□□ |①---|
1□□□ |----|
□□□□ |----|
□□□□ |----|
最終更新:2021年09月09日 12:00