アットウィキロゴ
白い雪のプリンセスは [ 2 ]
のぼる↑

EXTREME

Level: 9.5
BPM: 200
Notes(hold): 743(54)

1
口口口口 |----|
口口口① |----|
口口口口 |----|
口口口口 |--①-|
2
口口口① |----|
③口口口 |①---|
口口口口 |②---|
口口②口 |--③-|
3
①口口口 |----|
口口口③ |①---|
口口口口 |②---|
口②口口 |--③-|
4
口口口① |----|
③口口口 |①---|
口口口口 |②---|
口口②口 |--③-|
5
①口口口 |----|
口口口③ |①---|
口口口口 |②---|
口②口③ |--③-|
6
口口口② |--①-|
④口①口 |②---|
口口①② |③---|
④③③口 |--④-|
7
②口口口 |--①-|
口①口④ |②---|
②①口口 |③---|
口③③④ |--④-|
8
口口口② |--①-|
④口①口 |②---|
口④①② |③---|
口③③口 |--④-|
9
⑤④①② |--①-|
口口口⑥ |②-③-|
口口口③ |--④-|
口口③⑥ |⑤-⑥-|
10
口口口② |--①-|
④口①口 |②---|
口口①② |③---|
④③③口 |--④-|
11
②口口口 |--①-|
口①口④ |②---|
②①口口 |③---|
口③③④ |--④-|
12
口口口② |--①-|
口④①口 |②---|
④口①② |③---|
口③③口 |--④-|
13
口口①② |--①-|
口口口口 |②-③-|
口口③口 |--④-|
口口口③ |⑤-⑥-|

⑤④口口
口口口口
口口口口
⑥⑥<
14
口口口口 |----|
口口口口 |①---|
②口口① |--②-|
口口口口 |----|
15
口口口口 |①-②-|
⑥②①⑤ |③-④-|
⑦④③⑦ |⑤-⑥-|
口⑦⑦口 |⑦---|
16
③口口③ |①-②-|
口①①口 |----|
口口口口 |----|
②口口② |--③-|
17
口②④口 |--①-|
②⑥③④ |②-③-|
⑤③⑥① |④-⑤-|
口⑤①口 |⑥---|
18
口口⑧④ |①-②-|
③⑦口口 |③-④-|
口口⑥② |⑤-⑥-|
口口⑤① |⑦-⑧-|
19
口①口口 |①-②-|
口口②口 |③-④-|
口③口口 |----|
口>④口 |⑤-⑥-|

⑥口口口
⑥口口口
口口口口
口口⑤口
20
口⑦⑥⑤ |--①-|
口口口④ |②-③-|
口①②③ |④-⑤-|
口口口口 |⑥-⑦-|
21
①口口口 |①-②-|
②④口口 |③-④-|
③口口口 |--⑤-|
口口口④ |--⑥-|

⑥―<口
口口口⑤
口口口口
口⑤⑥口
22
①口③② |----|
口①口口 |①---|
④口口① |②-③-|
口>―④ |--④-|
23
口口口④ |----|
①口口④ |①---|
口口①口 |②-③-|
②③口① |--④-|
24
⑤⑥⑦口 |--①-|
④口口口 |②-③-|
③②①口 |④-⑤-|
口口口口 |⑥-⑦-|
25
口口口口 |①---|
口口口口 |--②-|
口口口口 |----|
口①―< |③---|

口口口口
口>―②
口口口口
口②口口

③口口口
口口口③
③口口口
口口口口
26
口口⑧④ |①-②-|
③⑦口口 |③-④-|
口口⑥② |⑤-⑥-|
口口⑤① |⑦-⑧-|
27
口①口口 |①-②-|
口口②口 |③-④-|
口③口口 |----|
口>④口 |⑤-⑥-|

⑥口口口
⑥口口口
口口口口
口口⑤口
28
口⑦⑥⑤ |--①-|
口口口④ |②-③-|
口①②③ |④-⑤-|
口口口口 |⑥-⑦-|
29
①口口口 |①-②-|
②④口口 |③-④-|
③口口口 |--⑤-|
口口口④ |--⑥-|

⑥―<口
口口口⑤
口口口口
口⑤⑥口
30
①口③② |----|
口①口口 |①---|
④口口① |②-③-|
口>―④ |--④-|
31
口口口口 |----|
①口口口 |①---|
口口①口 |②-③-|
口口口① |--④-|

口③②口
口口口口
口口口口
口口④<
32
口口口① |----|
口②口口 |①---|
②口口口 |----|
口口口口 |②---|
33
口口②口 |①---|
③>①口 |②---|
口③口口 |----|
口口口口 |③---|
34
口口口② |①---|
③口口∨ |②---|
③口口① |----|
口口口口 |③---|
35
③①②④ |①---|
口口①口 |②---|
口口①① |③---|
④②①③ |④---|
36
口①口口 |①---|
口|⑤④ |②-③-|
口|②③ |--④-|
口∧①口 |⑤---|
37
口④口口 |①---|
口口⑤④ |②-③-|
口⑤②③ |--④-|
口口①口 |⑤---|
38
口口口口 |①---|
①口口口 |②-③-|
|口②③ |④-⑤-|
∧口①口 |⑥---|

口口口口
④口⑥⑤
口口口口
口⑥口口
39
③②口口 |①---|
口口口④ |②-③-|
④①②③ |--④-|
口口①口 |⑤-⑥-|

∨口口口
|口⑤口
|口口口
⑥口口口
40
口口口口 |①---|
口口⑤④ |②-③-|
口口②③ |--④-|
口口①口 |⑤---|
41
口口口口 |①---|
⑥口⑤④ |②-③-|
口⑤②③ |--④-|
⑤口①口 |⑤-⑥-|
42
口①<口 |①---|
口口口口 |②-③-|
口口②③ |--④-|
口口①口 |⑤---|

口④口口
⑤口⑤④
口口口口
口口口口
43
②④③① |①---|
④口口③ |②---|
①口口② |③---|
③①②④ |④---|
44
口口口① |①---|
口口口| |②---|
口口②∧ |③-④-|
口①口口 |⑤---|

③口⑤④
口④口口
⑤口口口
口口口口
45
口②口口 |①---|
口口①口 |②---|
口口|口 |③-④-|
口①∧口 |⑤---|

③口⑤口
口④④口
⑤口口口
口口口口
46
口口口⑤ |①---|
④口口口 |②---|
口①①③ |③---④-|
②①①② |--⑤---|
47
①②①口 |①---|
④①②① |②-③-|
④③口③ |----|
③口③口 |④---|
48
口口∨口 |①---|
口口|口 |②---|
口口①口 |③-④-|
口口口口 |⑤-⑥-|

③口②口
口④口⑥
⑤口④|
口口口∧
49
口①口口 |①---|
口⑥⑥④ |②-③-|
口⑤④口 |④-⑤-|
口③②口 |⑥---|
50
①口口① |①---|
|口口| |----|
∧口口∧ |②---|
口口口口 |----|

②口口②
口口口口
口口口口
口口口口
51
口④口口 |①---|
口口③口 |②---|
口②口口 |③---|
口口①口 |④---|
52
口口口① |①---|
③②口口 |--②-|
口口口口 |③---|
口口④口 |--④-|
53
口口④口 |①---|
口口口③ |②---|
口口②口 |③---|
口口口① |④---|
54
口①口口 |①---|
②口口口 |②---|
口③口口 |③---|
④口口口 |④---|
55
口口口口 |①---|
口口口③ |----|
口口②口 |②---|
口①①口 |③---|
56
口口①口 |①---|
③口口口 |----|
口②口口 |②---|
口口口口 |③---|
57
口①②③ |①---|
口④口口 |②-③-|
口口口口 |----|
口口口口 |--④-|
58
口口口口 |①---|
①口⑤口 |②-③-|
口④②③ |--④-|
口口口口 |--⑤-|
59
口口口口 |----|
口口口口 |----|
口②口口 |①---|
口口①口 |②---|
60
口口口口 |①---|
③②①口 |--②-|
口口口口 |③---|
口口④口 |--④-|
61
口口④口 |①---|
口口口③ |②---|
口口②口 |③---|
口口口① |④---|
62
⑤④口口 |①---|
③口口口 |②---|
②口口口 |③---|
口①口口 |④-⑤-|
63
口口①口 |----|
口②口口 |①---|
口口③口 |②---|
口口口口 |③---|
64
口口口口 |①---|
口口口口 |----|
口③口口 |②---|
口①②口 |③---|
65
③②口口 |①---|
口口①口 |②-③-|
口口口口 |----|
口口口口 |----|
66
口口口口 |①---|
口口口口 |--②-|
口口>① |③---|
口口口口 |④---|

――②
③口口口
④口口②
口口口口
67
口口口④ |①---|
口口口口 |②---|
口口口口 |③---|
①②③④ |④---|
68
⑦①④⑦ |①-②-|
⑤④①② |③-④-|
④⑥③① |⑤-⑥-|
口口口口 |⑦---|
69
口口④口 |①---|
口③口口 |②---|
口口②口 |③---|
口①口口 |④---|
70
口口口口 |①---|
③④⑤① |②-③-|
③④口① |④---|
口口②口 |--⑤-|
71
口口口口 |①-②-|
口口口口 |③-④-|
口口口∨ |⑤-⑥-|
口②口① |⑦-⑧-|

口口口口
∨口口口
③口④口
口口口③

口口口∨
口⑥口⑤
⑤口口口
口口口口

⑦<⑧口
口口口⑦
口口口口
口口口口
72
①口口① |①---|
③④②口 |②---|
③②④口 |③---|
②口口④ |④---|
73
④④口④ |①---|
⑤口⑤⑤ |②-③-|
③口口② |④---|
口①①口 |⑤---|
74
口口②口 |①---|
口②口口 |②---|
口①①口 |③---|
①口口① |④-⑤-|

⑤口③
④口口口
⑤口③
口口口口
75
口①③< |--①-|
口②口口 |②-③-|
口①③< |----|
口口口口 |④-⑤-|

口口④口
口口口口
⑤口④口
口口口口
76
④口口③ |①---|
①⑤④② |②-③-|
口④口⑤ |--④-|
③口⑤① |--⑤-|
77
口②口口 |--①-|
①⑨⑥③ |②-③④|
⑩⑦④口 |⑤-⑥⑦|
⑧⑤口口 |⑧-⑨⑩|
78
①口①口 |①---|
口④③② |--②-|
口口③② |③---|
口口口口 |--④-|
79
口口口口 |①-②-|
口口口口 |③-④-|
∨口口口 |⑤-⑥-|
①口②口 |⑦-⑧-|

口口口口
口口口∨
口④口③
③口口口

∨口口口
⑤口⑥口
口口口⑤
口口口口

口⑧>⑦
⑦口口口
口口口口
口口口口
80
②口③① |①---|
口③口② |②---|
①②口③ |③---|
口①口口 |④-⑤-|

∨口∨口
⑤口⑤口
口口④口
④口口④
81
口①口① |----|
①口①口 |①---|
③②③② |②---|
口口口口 |③---|
82
口∨口∨ |①---|
口①口① |②---|
口口口口 |③---|
口口口口 |④---|

口③口④
③②④②
口口口口
口口口口
83
⑥⑤④口 |①---|
口③口口 |②-③-|
③口口口 |--④-|
①口②① |⑤-⑥-|
84
⑦⑧口口 |①-②-|
④⑤②① |③-④-|
④口口① |⑤-⑥-|
④③⑥① |⑦-⑧-|
85
口口①口 |①-②③|
⑩⑧⑤② |④-⑤⑥|
⑨⑥③口 |⑦-⑧⑨|
⑦④口口 |⑩-⑪-|

⑪口口⑪
|口口口
|口口口
∧口口口
86
口④口口 |--①-|
口③③口 |②---|
口口②① |③---|
口口口口 |--④-|
87
口口口口 |--①-|
口口口口 |②---|
口①②口 |③---|
口口口口 |--④-|

③口口口
口口>③
口口口口
口口口口

口口口④
口口口④
④口口口
∧口口口
88
口④口口 |--①-|
口③③口 |②---|
④口②① |③---|
口⑤⑤口 |④-⑤-|
89
口④口口 |--①-|
③口口① |②---|
口口②口 |③-④-|
口口口口 |--⑤-|

∨口口⑤
|口口口
|口口口
⑤口口口
90
口④口口 |--①-|
口③③口 |②---|
口口②① |③---|
口口口口 |--④-|
91
口口③④ |--①-|
口口口③ |②---|
口①②口 |③---|
口口口口 |--④-|
92
口口⑤⑤ |--①-|
口③③口 |②---|
口口②① |③---|
④口口口 |④-⑤-|
93
口口口口 |--①-|
口③口口 |②-③-|
⑤口②口 |④-⑤-|
口①口④ |⑥-⑦-|

⑦口口⑦
|口口⑥
|口口口
∧口口口
94
口④口口 |--①-|
口③③口 |②---|
口口②① |③---|
口口口口 |--④-|
95
口口③④ |--①-|
口口口③ |②---|
口①②口 |③---|
口口口口 |--④-|
96
口④④口 |--①-|
口③③口 |②---|
口口②① |③---|
口口口口 |--④-|
97
6口口⑦ |--①-|
⑤口④⑦ |②-③-|
口③口① |④-⑤-|
口口②口 |⑥-⑦-|
98
⑤口③⑤ |--①-|
⑤①口口 |②---|
①口口② |③---|
口口②④ |④-⑤-|
99
④口口口 |--①-|
口①口② |②---|
①口②⑤ |③---|
⑤③口⑤ |④-⑤-|
100
口口①④ |--①-|
②口口① |②---|
⑤②口口 |③---|
⑤口③⑤ |④-⑤-|
101
④④④④ |--①-|
②口口① |②---|
口②①口 |③---|
口③③口 |--④-|
102
口口口口 |--①-|
②①①② |②---|
②①①② |③---|
③口口③ |--④-|

口口④口
口口∧口
口∨口口
口④口口
103
②口①∨ |--①-|
|口口| |--②-|
|口口| |--③-|
∧①口② |④⑤⑥⑦|

③口口口
⑥口口⑦
④口口⑤
口口口③
104
口①口② |①---|
口②①口 |--②-|
口①②口 |----|
②口①口 |③---|

口∨③口
口||口
口||口
口③∧口

口口口口
③――<
――③
口口口口
105
口口口口 |----|
口口口口 |----|
口口口口 |----|
口口口口 |----|
106
口口口口 |----|
口口口口 |----|
口口口口 |----|
口口口口 |----|
107
口口口口 |----|
口口口口 |----|
口口口口 |----|
口口口口 |----|
108
口口①口 |----|
①口口口 |----|
口口口① |①---|
口①口口 |----|
最終更新:2019年11月08日 02:18